[bittorrent] Travis Book/Jon Stickley/Lindsay Pruitt/Sean Lane Tony Rice Tribute Hazel Robinson Amphitheatre Asheville, North Carolina 8/5/2021 (Z-Man Schoeps CCM4V'S FOB)

Automated Mailer noreply-bt.e at etree.org
Sat Aug 7 17:39:41 UTC 2021


Band:           Other
Torrent Name:   Travis Book/Jon Stickley/Lindsay Pruitt/Sean Lane Tony Rice Tribute Hazel Robinson Amphitheatre Asheville, North Carolina 8/5/2021  (Z-Man Schoeps CCM4V'S FOB)
Uploaded by:    zmanatl
DB Link:        
Details:        http://bt.etree.org/details.php?id=613394

Contact the seeder at http://db.etree.org/zmanatl

If the link to this show does not work, it was probably removed for
being non-trade-friendly.

Description / text file:
-------------------------
Travis Book/Jon Stickley/Lindsay Pruitt/Sean Lane
Tony Rice Tribute
Hazel Robinson Amphitheatre
Asheville, North Carolina
8/5/2021 

Source: Schoeps CCM4V'S>Lunatec V2>Sound Devices 722 (24/44.1)
FOB/DFC/KFC/ZFC/AARP 5th Row Of Bench Seats, 6 1/2' High
DSP: Sound Devices 722>Sound Forge 10.0>CD Wave>flac(16)
ID3 Tagged In Foobar 2000
Recorded By: Z-Man
Seeded By: Z-Man
A Team Dirty South Recording

Disc I 

01 Greeting By Travis
02 Old Train
03 Swing 51
04 Don't Give Your Heart
05 Please Search Your Heart
06 Port Tobacco
07 Ginseng Sullivan
08 Meon Tetra
09 Early Morning Rain
10 Model Church
11 Cold On The Shoulder
12 Why You Been Gone So Long
13 Old Grey Coat
14 Home From The Forest
15 Night Flyer
16 Band Introductions
17 Manzanita

Travis Book - Bass And Vocals
Jon Stickley - Guitar And Vcals
Lindsay Pruitt - Fiddle
Shawn Lane - Mandolin And Vocals

tony2021-08-05d01t01.flac:0bda87e2f2f3152cd9da09c57f356912
tony2021-08-05d01t02.flac:cbda8a4577b307e227038b9a92cdfdc1
tony2021-08-05d01t03.flac:989bb396d56adf02ef9c6dc4b47070b0
tony2021-08-05d01t04.flac:35537f750af66cb84a3e870d0bf60f6b
tony2021-08-05d01t05.flac:f923b491d5ac357f6e8c6239581f3292
tony2021-08-05d01t06.flac:463d20f6d7f78c4d5154715d06250906
tony2021-08-05d01t07.flac:3de647b05f515258dc20cb41d06036d2
tony2021-08-05d01t08.flac:05ec0299c5a94914d38d15310684e09f
tony2021-08-05d01t09.flac:29b707e840ecbd9dabdb2f223c641d4c
tony2021-08-05d01t10.flac:53c1d36f182b6a20bfc5578b347e79de
tony2021-08-05d01t11.flac:005fa0ae34015c0ceaa002564a4bf5f8
tony2021-08-05d01t12.flac:03a90e1078beccbd157b50a6402e1f81
tony2021-08-05d01t13.flac:e3cf94d06d8d6cfcc45f1974f2fc53db
tony2021-08-05d01t14.flac:877c34d67f832a722a69ff3ff80012f4
tony2021-08-05d01t15.flac:4ddc63a435319a92fb4882915ec47495
tony2021-08-05d01t16.flac:54e6aed228c944ec9ad46d25e744d044
tony2021-08-05d01t17.flac:416719f648c06ac3262aa851e1c1aa1b

  length     expanded size    cdr  WAVE problems  fmt   ratio  filename
     0:24.34        4313612 B   ---   --   ---xx   flac  0.3807  tony2021-08-05d01t01.flac
     2:35.01       27344396 B   ---   --   ---xx   flac  0.3927  tony2021-08-05d01t02.flac
     4:44.01       50099996 B   ---   --   ---xx   flac  0.3767  tony2021-08-05d01t03.flac
     4:27.72       47268188 B   ---   --   ---xx   flac  0.3898  tony2021-08-05d01t04.flac
     3:12.67       34026428 B   ---   --   ---xx   flac  0.3798  tony2021-08-05d01t05.flac
     5:28.68       58019180 B   ---   --   ---xx   flac  0.3753  tony2021-08-05d01t06.flac
     4:00.16       42373676 B   ---   --   ---xx   flac  0.3989  tony2021-08-05d01t07.flac
     9:13.67       97706828 B   ---   --   ---xx   flac  0.3689  tony2021-08-05d01t08.flac
     4:11.31       44349356 B   ---   --   ---xx   flac  0.3953  tony2021-08-05d01t09.flac
     4:39.04       49225052 B   ---   --   ---xx   flac  0.4152  tony2021-08-05d01t10.flac
     4:56.64       52364972 B   ---   --   ---xx   flac  0.4323  tony2021-08-05d01t11.flac
     4:15.66       45137276 B   ---   --   ---xx   flac  0.4393  tony2021-08-05d01t12.flac
     4:44.46       50205836 B   ---   --   ---xx   flac  0.3947  tony2021-08-05d01t13.flac
     4:13.25       44688044 B   ---   --   ---xx   flac  0.4026  tony2021-08-05d01t14.flac
     4:07.48       43683740 B   ---   --   ---xx   flac  0.4370  tony2021-08-05d01t15.flac
     0:42.40        7502924 B   ---   --   ---xx   flac  0.5020  tony2021-08-05d01t16.flac
     5:23.46       57085436 B   ---   --   ---xx   flac  0.4111  tony2021-08-05d01t17.flac
    71:22.21      755394940 B                            0.3996  (17 files)






More information about the bittorrent mailing list