[bittorrent] Trey Anastasio 2021-06-19 SPAC Saratoga Springs, NY Schoeps mk4>kc5>cmc6>mixpre 3ii **1644**

Automated Mailer noreply-bt.e at etree.org
Sat Aug 7 17:08:34 UTC 2021


Band:           Trey Anastasio
Torrent Name:   Trey Anastasio 2021-06-19 SPAC Saratoga Springs, NY Schoeps mk4>kc5>cmc6>mixpre 3ii **1644**
Uploaded by:    andyjah
DB Link:        
Details:        http://bt.etree.org/details.php?id=613392

Contact the seeder at http://db.etree.org/andyjah

If the link to this show does not work, it was probably removed for
being non-trade-friendly.

Description / text file:
-------------------------
Trey Anastasio
2021-06-19
Saratoga Performing Arts Center
Saratoga Springs, NY

Source: Schoeps mk4 (70 degrees @ 17cm)>kc5>cmc6>Sound Devices mixpre 3ii

Transfer: Imac>Audacity(tracking,normalize,fades,limiter)>Sony Soundforge Convrt(resample(izotope,highest settings)/dither(mbit+/ultra, high dither)to 16 bit/44.1k)>XAct(FLAC 8,ffp,fix sbe)

Recorded from balcony left stack sec 8 row jj

Recorded by Dave Flaschner

Transferred by Andy Murray

01 Set Your Soul Free
02 Blaze On
03 I Never Needed You Like This Before
04 Esther
05 Brian and Robert
06 Wolfman’s Brother
07 Divided Sky
08 Driver
09 When the Words Go Away
10 Twist
11 Foam
12 What’s The Use
13 Chalk Dust Torture
14 Sand
15 Pebbles and Marbles
16 Lifeboy
17 Backwards Down the Number Line
18 Limb By Limb
19 Mountains In The Mist
20 Sleep
21 Waste
22 Sleeping Monkey
encore:
23 If I Could
24 Say It To Me S.A.N.T.O.S.

Page McConnell joining Trey for: Mountains in the Mist, Sleep, Waste, Sleeping Monkey, If I could, and Say It To Me S.A.N.T.O.S.
The Rescue Squad Strings joining Trey for: Brian and Robert, Wolfman's Brother, Divided Sky, What’s The Use, Pebbles and Marbles, Lifeboy, If I Could, and Say It to Me S.A.N.T.O.S.
Jeff Tanski joining Trey for: I Never Needed You Like This Before, Esther, Brian and Robert, Wolfman's Brother, Divided Sky, Foam, What's The Use, Sand, Pebbles and Marbles, Lifeboy, and Say It to Me S.A.N.T.O.S.

;flac fingerprints generated by xACT 2.38 on 2021-08-07 16:56:29 +0000

trey2021-06-19.mk4.mixpre3ii.1644.s1t01.flac:104e033f998bdb87ae1334e68d5b895e
trey2021-06-19.mk4.mixpre3ii.1644.s1t02.flac:f91812076441a5cb37dd7f48da282407
trey2021-06-19.mk4.mixpre3ii.1644.s1t03.flac:da713e83f3506f2a094bff19205994f6
trey2021-06-19.mk4.mixpre3ii.1644.s1t04.flac:ff18a308668ac832dae4e625e722e2da
trey2021-06-19.mk4.mixpre3ii.1644.s1t05.flac:7757ede845e62b70b5b9f0ab087a52c4
trey2021-06-19.mk4.mixpre3ii.1644.s1t06.flac:4b5abf51cfc7ea12e7c790bf2ae5d882
trey2021-06-19.mk4.mixpre3ii.1644.s1t07.flac:fc8f78d26183538e7fdd3cbd22057f15
trey2021-06-19.mk4.mixpre3ii.1644.s1t08.flac:84b4bc81bf3d6e78a765493aea25a59a
trey2021-06-19.mk4.mixpre3ii.1644.s1t09.flac:74389f94d220970d8c680a9e500b4d63
trey2021-06-19.mk4.mixpre3ii.1644.s1t10.flac:12b9b7a89a5325ae7f6629296633891f
trey2021-06-19.mk4.mixpre3ii.1644.s1t11.flac:a03ac9787dd537f827cae5b87306ed88
trey2021-06-19.mk4.mixpre3ii.1644.s1t12.flac:dd4d595b98f6a44702691b7ac965d655
trey2021-06-19.mk4.mixpre3ii.1644.s1t13.flac:c9f43f4167f68d035a803f87d11fcc70
trey2021-06-19.mk4.mixpre3ii.1644.s1t14.flac:faa6d1e714e1a85b541aae70fc742902
trey2021-06-19.mk4.mixpre3ii.1644.s1t15.flac:b50be806b504390b5986b276a0f121af
trey2021-06-19.mk4.mixpre3ii.1644.s1t16.flac:2eb9c70fdc5fccf082e968cdf8b79616
trey2021-06-19.mk4.mixpre3ii.1644.s1t17.flac:2446276a9855f4129eae2d0711ba744b
trey2021-06-19.mk4.mixpre3ii.1644.s1t18.flac:b0ec49dd0c29cab565f641dd7aa41ec2
trey2021-06-19.mk4.mixpre3ii.1644.s1t19.flac:5b4949ff2ce498add5961a1ca3f3fe4f
trey2021-06-19.mk4.mixpre3ii.1644.s1t20.flac:852b5ad2d09d5238f186e78b55239e80
trey2021-06-19.mk4.mixpre3ii.1644.s1t21.flac:b3d2a54dcb90be55ac9114e2a7c479c8
trey2021-06-19.mk4.mixpre3ii.1644.s1t22.flac:b523ed77f49dfd522a21b25e01db36eb
trey2021-06-19.mk4.mixpre3ii.1644.s1t23.flac:e7cf47e11f57aa2e193b5e6c05b40f21
trey2021-06-19.mk4.mixpre3ii.1644.s1t24.flac:0763676dba9a6649468f2105d08a7044

    length     expanded size    cdr  WAVE problems  fmt   ratio  filename
     3:11.31       33765356 B   ---   --   -----    wav  1.0000  trey2021-06-19.mk4.mixpre3ii.1644.s1t01.wav
     8:46.27       92849948 B   ---   --   -----    wav  1.0000  trey2021-06-19.mk4.mixpre3ii.1644.s1t02.wav
     4:36.30       48757004 B   ---   --   -----    wav  1.0000  trey2021-06-19.mk4.mixpre3ii.1644.s1t03.wav
     9:54.33      104859260 B   ---   --   -----    wav  1.0000  trey2021-06-19.mk4.mixpre3ii.1644.s1t04.wav
     3:26.14       36371372 B   ---   --   -----    wav  1.0000  trey2021-06-19.mk4.mixpre3ii.1644.s1t05.wav
     7:00.14       74120972 B   ---   --   -----    wav  1.0000  trey2021-06-19.mk4.mixpre3ii.1644.s1t06.wav
    21:54.61      231933116 B   ---   --   -----    wav  1.0000  trey2021-06-19.mk4.mixpre3ii.1644.s1t07.wav
     2:20.18       24738380 B   ---   --   -----    wav  1.0000  trey2021-06-19.mk4.mixpre3ii.1644.s1t08.wav
     3:17.35       34833164 B   ---   --   -----    wav  1.0000  trey2021-06-19.mk4.mixpre3ii.1644.s1t09.wav
     6:15.73       66321740 B   ---   --   -----    wav  1.0000  trey2021-06-19.mk4.mixpre3ii.1644.s1t10.wav
     6:43.36       71173916 B   ---   --   -----    wav  1.0000  trey2021-06-19.mk4.mixpre3ii.1644.s1t11.wav
     6:56.00       73382444 B   ---   --   -----    wav  1.0000  trey2021-06-19.mk4.mixpre3ii.1644.s1t12.wav
     4:34.35       48415964 B   ---   --   -----    wav  1.0000  trey2021-06-19.mk4.mixpre3ii.1644.s1t13.wav
     6:41.74       70910492 B   ---   --   -----    wav  1.0000  trey2021-06-19.mk4.mixpre3ii.1644.s1t14.wav
     7:41.60       81461564 B   ---   --   -----    wav  1.0000  trey2021-06-19.mk4.mixpre3ii.1644.s1t15.wav
     5:45.24       60914492 B   ---   --   -----    wav  1.0000  trey2021-06-19.mk4.mixpre3ii.1644.s1t16.wav
     3:17.21       34800236 B   ---   --   -----    wav  1.0000  trey2021-06-19.mk4.mixpre3ii.1644.s1t17.wav
     5:02.59       53411612 B   ---   --   -----    wav  1.0000  trey2021-06-19.mk4.mixpre3ii.1644.s1t18.wav
     7:28.49       79142492 B   ---   --   -----    wav  1.0000  trey2021-06-19.mk4.mixpre3ii.1644.s1t19.wav
     2:25.72       25747388 B   ---   --   -----    wav  1.0000  trey2021-06-19.mk4.mixpre3ii.1644.s1t20.wav
     8:12.20       86835884 B   ---   --   -----    wav  1.0000  trey2021-06-19.mk4.mixpre3ii.1644.s1t21.wav
     6:15.73       66321740 B   ---   --   -----    wav  1.0000  trey2021-06-19.mk4.mixpre3ii.1644.s1t22.wav
     6:11.11       65470316 B   ---   --   -----    wav  1.0000  trey2021-06-19.mk4.mixpre3ii.1644.s1t23.wav
     5:24.37       57240668 B   ---   --   -----    wav  1.0000  trey2021-06-19.mk4.mixpre3ii.1644.s1t24.wav
   153:25.07     1623779520 B                            1.0000  (24 files)





More information about the bittorrent mailing list