[bittorrent] Widespread Panic Asheville Civic Center Asheville, North Carolina 8/6/2021 (Z-Man Schoeps CCM4V'S FOB)

Automated Mailer noreply-bt.e at etree.org
Sat Aug 7 06:48:15 UTC 2021


Band:           Widespread Panic
Torrent Name:   Widespread Panic Asheville Civic Center Asheville, North Carolina 8/6/2021  (Z-Man Schoeps CCM4V'S FOB)
Uploaded by:    zmanatl
DB Link:        
Details:        http://bt.etree.org/details.php?id=613384

Contact the seeder at http://db.etree.org/zmanatl

If the link to this show does not work, it was probably removed for
being non-trade-friendly.

Description / text file:
-------------------------
Widespread Panic
Asheville Civic Center
Asheville, North Carolina
8/6/2021 

Source: Schoeps CCM4V'S>Lunatec V2>Sound Devices 722 (24/44.1)
FOB/DFC/KFC/ZFC/AARP Inside The Soundboard Cage, 7 1/2' High
DSP: Sound Devices 722>Sound Forge 10.0>CD Wave>flac(16)
ID3 Tagged In Foobar 2000
Recorded By: Z-Man
Seeded By: Z-Man
A Team Dirty South Recording

Disc I 1st Set

01 Greeting By JB
02 Let's Get Down To Business >
03 You Should Be Glad
04 Sell Sell >
05 Radio Child >
06 Gimme >
07 Thought Sausage
08 Good People >
09 Dark Bar >
10 Good People 
11 Tail Dragger >
12 Love Tractor

Disc II 2nd Set 

01 Rumble >
02 Bust It Big >
03 Jam >
04 Don't Be Denied 
05 Send Your Mind 
06 Sleepin' Man >
07 Walkin'

Disc III 2nd Set Con't  

01 Airplane >
02 Take-Off Jam >
03 Drum Solo >
04 Run Like Hell Jam >
05 Fishwater
Encore:
06 Contentment Blues >
07 Expiration Day

John "JB" Bell - Guitar And Vocals
Jimmy Herring - Guitar
Dave Schools - Bass And Vocals
John "JoJo" Hermann - Keyboards And Vocals
Domingo "Sunny" Ortiz - Percussion
Duane Trucks - Drums

wsp2021-08-06d01t01.flac:42ba6832c59c6fd37983bd8f3e29c486
wsp2021-08-06d01t02.flac:d03fa581947b7538ca078473b2edd641
wsp2021-08-06d01t03.flac:986f93ab0ec6c9886af214a0cef3a927
wsp2021-08-06d01t04.flac:0cbdcde9cf40aa3a455bbea263eccf70
wsp2021-08-06d01t05.flac:9e92555f6503e1f8c65b81c345f9645f
wsp2021-08-06d01t06.flac:4a261c2d914eac6c73aeb860f0c5b5e4
wsp2021-08-06d01t07.flac:a7a0e02ec031240f5ef7aa81bb1c3957
wsp2021-08-06d01t08.flac:30bc76e9b700deeea38fddc8cbe0d3b1
wsp2021-08-06d01t09.flac:14a4ca4ca4bab5b318df1bb68523187d
wsp2021-08-06d01t10.flac:164f03a19b848bed5b64d5a091cc9869
wsp2021-08-06d01t11.flac:f48160e7a849f63c30056f7bfcae7c2e
wsp2021-08-06d01t12.flac:2c150585706746e0be859dfc1aadec6c
wsp2021-08-06d02t01.flac:5802d8d442a1bc773835da9a85ef8ba3
wsp2021-08-06d02t02.flac:d4d573c7f8a5f1245b5ec310efd82cac
wsp2021-08-06d02t03.flac:ef58376923d3c345fad05ec4d78c7175
wsp2021-08-06d02t04.flac:f7d3de37dbaf8dc14e83543438f963b4
wsp2021-08-06d02t05.flac:15187325486939de6d12b8022ea2ac46
wsp2021-08-06d02t06.flac:333792290078a9b586442fc12ee1bf7c
wsp2021-08-06d02t07.flac:2d0925e5dc04d51e8c5a0f7bd4a9f0c2
wsp2021-08-06d03t01.flac:492ac4f074a9367b6454d19bddcbb133
wsp2021-08-06d03t02.flac:e5c87fea3b7610f656024a4f652a61da
wsp2021-08-06d03t03.flac:34b822f96fabd58a406b69bb8ad1f4b1
wsp2021-08-06d03t04.flac:0ed41f3b64e6f28c7723dd88b3e05cf3
wsp2021-08-06d03t05.flac:08cbaa49132657e8a5c591a8fd3cdc3a
wsp2021-08-06d03t06.flac:13cedf8ae9d006efdd32be54be9691a8
wsp2021-08-06d03t07.flac:864e9cc31d469c4d257b673fba22c2c1

 length     expanded size    cdr  WAVE problems  fmt   ratio  filename
     0:50.09        8841212 B   ---   --   ---xx   flac  0.3841  wsp2021-08-06d01t01.flac
     4:21.54       46167452 B   ---   --   ---xx   flac  0.5188  wsp2021-08-06d01t02.flac
    11:47.40      124808924 B   ---   --   ---xx   flac  0.5371  wsp2021-08-06d01t03.flac
     7:29.09       79224812 B   ---   --   ---xx   flac  0.5566  wsp2021-08-06d01t04.flac
     6:07.17       64778828 B   ---   --   ---xx   flac  0.5491  wsp2021-08-06d01t05.flac
     8:20.50       88317644 B   ---   --   ---xx   flac  0.4314  wsp2021-08-06d01t06.flac
     4:55.32       52113308 B   ---   --   ---xx   flac  0.5673  wsp2021-08-06d01t07.flac
     2:37.63       27843020 B   ---   --   ---xx   flac  0.5362  wsp2021-08-06d01t08.flac
     6:14.49       66088892 B   ---   --   ---xx   flac  0.4729  wsp2021-08-06d01t09.flac
     4:36.63       48834620 B   ---   --   ---xx   flac  0.5158  wsp2021-08-06d01t10.flac
     5:32.54       58691852 B   ---   --   ---xx   flac  0.5326  wsp2021-08-06d01t11.flac
     7:34.26       80146796 B   ---   --   ---xx   flac  0.5411  wsp2021-08-06d01t12.flac
     5:15.42       55664828 B   ---   --   ---xx   flac  0.4807  wsp2021-08-06d02t01.flac
    10:07.38      107164220 B   ---   --   ---xx   flac  0.5350  wsp2021-08-06d02t02.flac
     6:42.56       71044556 B   ---   --   ---xx   flac  0.4901  wsp2021-08-06d02t03.flac
     7:33.72       80078588 B   ---   --   ---xx   flac  0.4328  wsp2021-08-06d02t04.flac
     3:04.21       32507036 B   ---   --   ---xx   flac  0.5124  wsp2021-08-06d02t05.flac
     8:51.69       93830732 B   ---   --   ---xx   flac  0.5243  wsp2021-08-06d02t06.flac
     5:25.33       57407660 B   ---   --   ---xx   flac  0.5238  wsp2021-08-06d02t07.flac
     5:56.28       62864300 B   ---   --   ---xx   flac  0.4787  wsp2021-08-06d03t01.flac
     6:19.04       66865052 B   ---   --   ---xx   flac  0.4880  wsp2021-08-06d03t02.flac
     5:19.69       56433932 B   ---   --   ---xx   flac  0.4499  wsp2021-08-06d03t03.flac
     9:24.28       99555500 B   ---   --   ---xx   flac  0.5373  wsp2021-08-06d03t04.flac
     9:20.69       98946332 B   ---   --   ---xx   flac  0.5621  wsp2021-08-06d03t05.flac
     5:41.21       60201836 B   ---   --   ---xx   flac  0.4931  wsp2021-08-06d03t06.flac
     5:34.53       59042300 B   ---   --   ---xx   flac  0.4451  wsp2021-08-06d03t07.flac
   165:06.19     1747464232 B                            0.5095  (26 files)




More information about the bittorrent mailing list