[bittorrent] Del McCoury Band Hazel Robinson Amphitheatre Asheville, North Carolina 8/5/2021 (Z-Man CCM4V'S FOB)

Automated Mailer noreply-bt.e at etree.org
Fri Aug 6 15:01:25 UTC 2021


Band:           Other
Torrent Name:   Del McCoury Band Hazel Robinson Amphitheatre Asheville, North Carolina 8/5/2021  (Z-Man CCM4V'S FOB)
Uploaded by:    zmanatl
DB Link:        
Details:        http://bt.etree.org/details.php?id=613379

Contact the seeder at http://db.etree.org/zmanatl

If the link to this show does not work, it was probably removed for
being non-trade-friendly.

Description / text file:
-------------------------
Del McCoury Band
Hazel Robinson Amphitheatre
Asheville, North Carolina
8/5/2021 

Source: Schoeps CCM4V'S>Lunatec V2>Sound Devices 722 (24/44.1)
FOB/DFC/KFC/ZFC/AARP 5th Row Of Bench Seats, 6 1/2' High
DSP: Sound Devices 722>Sound Forge 10.0>CD Wave>flac(16)
ID3 Tagged In Foobar 2000
Recorded By: Z-Man
Seeded By: Z-Man
A Team Dirty South Recording

Disc I 

01 Dry My Tears
02 Bluest Man In Town
03 The Quicksburg Rendezvoux
04 Heart Of My Heartbeat
05 Instrumental
06 Nashville Cats
07 Instrumental
08 I'll Break Out Again Tonight
09 That Ol' Train
10 Ernest Tubb
11 A Good Man Like Me 
12 Henry Walker

Disc II 

01 The Ghost Of Eli Renfro
02 Del Banter
03 Travelin' Teardrop Blues 
04 The Asheville Turnaround
05 ?
06 1952 Vincent Black Lightning
07 Workin' On A Building 
08 Don't Put Off Tomorrow What You Can Do Today
09 *I'll Put On A Crown And Walk Around
10 All Aboard
Encore:
11 Del Banter
12 It's Just A Night
13 White House Blues

* Restarted

Del McCoury - Guitar And Vcals
Ronnie McCoury - Mandolin And Vocals
Rob McCoury - BanJo
Jason Carter - Fiddle And Vocals
Akan Bartram - Bass And Vocals

del2021-08-05d01t01.flac:3bcdf442877369efa1d7c808963cf26d
del2021-08-05d01t02.flac:0e6d7abdf52d6cfc12de27c1597ad635
del2021-08-05d01t03.flac:2cc0582a14b7e3e0688a5eae6184b3a0
del2021-08-05d01t04.flac:e7fe80ceb3e7d4d1ca663b088495cdf5
del2021-08-05d01t05.flac:f4cac839c6143614351e8fae8ad7be3e
del2021-08-05d01t06.flac:db060ba9ffc834973e7c52d5fcdb9902
del2021-08-05d01t07.flac:676919a8b615281644bba3032c89ffb3
del2021-08-05d01t08.flac:c44c9770ad07a921779f382b888a0253
del2021-08-05d01t09.flac:eb38a526790e4ae32ac3127c68d4245e
del2021-08-05d01t10.flac:9fca3622fa897d11dbe8a462cc46d6f5
del2021-08-05d01t11.flac:de247e2980cdecec3dab56bf69274bc5
del2021-08-05d01t12.flac:8988626dc55f31d2bd742330614eecd5
del2021-08-05d02t01.flac:6b46b43a97e9bb9c05dda343e1b556ea
del2021-08-05d02t02.flac:9547bc067ad74b503ee9738022065bd1
del2021-08-05d02t03.flac:132f754a5b55c84ea974ae19306db599
del2021-08-05d02t04.flac:4cab37987dc6318d2379b5dcb0d9e94a
del2021-08-05d02t05.flac:9d8e34320767d0df69d8df9a52de4980
del2021-08-05d02t06.flac:e71a36cfc8e802ed50498c8d86fd506b
del2021-08-05d02t07.flac:494cb8b693ae57a1b892e1a612cd2735
del2021-08-05d02t08.flac:c5d179f7dbb76f2084771d2f8facac6a
del2021-08-05d02t09.flac:7551087717e4c3f43be127b21fed25df
del2021-08-05d02t10.flac:894a185459392f155e982fa4e6f9314e
del2021-08-05d02t11.flac:bc5f91264da4592545521145b693c5ce
del2021-08-05d02t12.flac:07b481c457093f7d551cabf5a9717dcf
del2021-08-05d02t13.flac:38b7132f4a8a085458b92357730b71ed

 length     expanded size    cdr  WAVE problems  fmt   ratio  filename
     3:29.00       36867644 B   ---   --   ---xx   flac  0.4700  del2021-08-05d01t01.flac
     4:42.00       49744844 B   ---   --   ---xx   flac  0.4518  del2021-08-05d01t02.flac
     3:17.46       34859036 B   ---   --   ---xx   flac  0.5027  del2021-08-05d01t03.flac
     3:54.14       41310572 B   ---   --   ---xx   flac  0.4614  del2021-08-05d01t04.flac
     2:19.32       24594908 B   ---   --   ---xx   flac  0.5007  del2021-08-05d01t05.flac
     5:25.04       57339452 B   ---   --   ---xx   flac  0.4673  del2021-08-05d01t06.flac
     3:01.50       32046044 B   ---   --   ---xx   flac  0.5140  del2021-08-05d01t07.flac
     3:24.20       36032684 B   ---   --   ---xx   flac  0.4663  del2021-08-05d01t08.flac
     5:26.73       57678140 B   ---   --   ---xx   flac  0.4575  del2021-08-05d01t09.flac
     4:07.43       43671980 B   ---   --   ---xx   flac  0.4461  del2021-08-05d01t10.flac
     3:34.65       37902524 B   ---   --   ---xx   flac  0.4571  del2021-08-05d01t11.flac
     3:23.38       35898620 B   ---   --   ---xx   flac  0.4621  del2021-08-05d01t12.flac
     4:46.48       50563340 B   ---   --   ---xx   flac  0.4374  del2021-08-05d02t01.flac
     1:55.29       20354252 B   ---   --   ---xx   flac  0.3709  del2021-08-05d02t02.flac
     4:50.01       51158396 B   ---   --   ---xx   flac  0.4772  del2021-08-05d02t03.flac
     4:02.46       42797036 B   ---   --   ---xx   flac  0.4350  del2021-08-05d02t04.flac
     4:29.29       47519852 B   ---   --   ---xx   flac  0.3981  del2021-08-05d02t05.flac
     5:44.52       60803948 B   ---   --   ---xx   flac  0.4611  del2021-08-05d02t06.flac
     3:06.50       32928044 B   ---   --   ---xx   flac  0.4441  del2021-08-05d02t07.flac
     3:07.31       33059756 B   ---   --   ---xx   flac  0.4793  del2021-08-05d02t08.flac
     4:28.65       47428124 B   ---   --   ---xx   flac  0.4544  del2021-08-05d02t09.flac
     4:46.13       50481020 B   ---   --   ---xx   flac  0.4861  del2021-08-05d02t10.flac
     0:46.68        8274380 B   ---   --   ---xx   flac  0.3538  del2021-08-05d02t11.flac
     4:48.67       50960828 B   ---   --   ---xx   flac  0.4213  del2021-08-05d02t12.flac
     2:53.71       30684236 B   ---   --   ---xx   flac  0.4921  del2021-08-05d02t13.flac
    95:53.55     1014959660 B                            0.4574  (25 files)







More information about the bittorrent mailing list