[bittorrent] gr8FL dude & Token Rhyme Ryan Marcus' House Sandy Springs, Georgia 8/3/2021 (Z-Man Schoeps CCM4V'S FOB)

Automated Mailer noreply-bt.e at etree.org
Wed Aug 4 15:59:48 UTC 2021


Band:           Other
Torrent Name:   gr8FL dude & Token Rhyme Ryan Marcus' House Sandy Springs, Georgia 8/3/2021  (Z-Man Schoeps CCM4V'S FOB)
Uploaded by:    zmanatl
DB Link:        
Details:        http://bt.etree.org/details.php?id=613363

Contact the seeder at http://db.etree.org/zmanatl

If the link to this show does not work, it was probably removed for
being non-trade-friendly.

Description / text file:
-------------------------
gr8FL dude & Token Rhyme
Ryan Marcus' House
Sandy Springs, Georgia
8/3/2021 

Source: Schoeps CCM4V'S>Lunatec V2>Sound Devices 722 (24/44.1)
FOB/DFC/KFC/ZFC/AARP 8' From Stage, 6 1/2' High
DSP: Sound Devices 722>Sound Forge 10.0>CD Wave>flac(16)
ID3 Tagged In Foobar 2000
Recorded By: Z-Man
Seeded By: Z-Man
A Team Dirty South Recording

Disc I 

01 The Music Never Stopped 
02 Mississippi Half-Step, Uptown Toodeloo
03 The Race Is On
04 Hey Pockey Way
05 They Love Each Other
06 Terrapin Station >
07 Playin' In The Band

Lewis Newmark - Guitar And Vocals
Craig Neely - Guitar And Vocals
Jim Roe - Acoustic Guitar And Vocals
Diane Rabson - Keyboards And Vocals
Tommie Jones - Bass
Ryan Marcus - Drums

gr8fl2021-08-03d01t01.flac:6811e53214d0609ac422eca4101c97f0
gr8fl2021-08-03d01t02.flac:eae603a72d2afab335544b7fece70b17
gr8fl2021-08-03d01t03.flac:dfa81c8d85c056dec50756d467587409
gr8fl2021-08-03d01t04.flac:2db0f1a59ae10fc6a4fc9562888e7354
gr8fl2021-08-03d01t05.flac:11fbd2f9ee85630bb279761f0b5a0f5f
gr8fl2021-08-03d01t06.flac:72b9946e69f0632edae73a31e9b62139
gr8fl2021-08-03d01t07.flac:2d83248afcbddd662e2f895864446439

  length     expanded size    cdr  WAVE problems  fmt   ratio  filename
     7:25.48       78610940 B   ---   --   ---xx   flac  0.5511  gr8fl2021-08-03d01t01.flac
     8:39.16       91589276 B   ---   --   ---xx   flac  0.5624  gr8fl2021-08-03d01t02.flac
     4:26.66       47077676 B   ---   --   ---xx   flac  0.4982  gr8fl2021-08-03d01t03.flac
     6:55.33       73283660 B   ---   --   ---xx   flac  0.5387  gr8fl2021-08-03d01t04.flac
     6:34.50       69619244 B   ---   --   ---xx   flac  0.5033  gr8fl2021-08-03d01t05.flac
    11:29.64      121690172 B   ---   --   ---xx   flac  0.5500  gr8fl2021-08-03d01t06.flac
    10:19.42      109290428 B   ---   --   ---xx   flac  0.5660  gr8fl2021-08-03d01t07.flac
    55:51.19      591161396 B                            0.5440  (7 files)




More information about the bittorrent mailing list