[bittorrent] Smothered And Covered Ryan Marcus's House Sandy Springs, Georgia 7/29/2021 (Z-Man Schoeps CCM4V'S FOB)

Automated Mailer noreply-bt.e at etree.org
Tue Aug 3 14:45:36 UTC 2021


Band:           Other
Torrent Name:   Smothered And Covered Ryan Marcus's House Sandy Springs, Georgia 7/29/2021  (Z-Man Schoeps CCM4V'S FOB)
Uploaded by:    zmanatl
DB Link:        
Details:        http://bt.etree.org/details.php?id=613353

Contact the seeder at http://db.etree.org/zmanatl

If the link to this show does not work, it was probably removed for
being non-trade-friendly.

Description / text file:
-------------------------
Smothered And Covered
Ryan Marcus's House
Sandy Springs, Georgia
7/29/2021 

Source: Schoeps CCM4V'S>Sound Devices 722 (24/44.1)
FOB/DFC/KFC/ZFC/AARP 8' From Stage, 6 1/2' High
DSP: Sound Devices 722>Sound Forge 10.0>CD Wave>flac(16)
ID3 Tagged In Foobar 2000
Recorded By: Z-Man
Seeded By: Z-Man
A Team Dirty South Recording

Disc I 1st Set

01 Jumpin' Jack Flash 
02 Shooting Star
03 Crossroads
04 Jealous Again
05 Ramble On Rose
06 Let It Rain
07 Lawyers, Guns, & Money
08 The Sky Is Cryin'
09 Miss You
10 The Weight
11 Let It Be

Disc II 2nd Set 

01 The Seeker
02 Touch
03 Times Like These 
04 I'm Burnin'
05 Blue Sky 
06 You're Just What I Needed
07 Suoer 8 Motel 
08 Lonely Is The Night 
09 Althea

Mark Siegel - Guitar
Matt Cohen - Vocals
Jason Lazarus- Bass
Matt Berke - Keyboard And Guitar
Ryan Marcus - Drums

smothered2021-07-29d01t01.flac:ba84263c9b1858206882b1f6efdb482e
smothered2021-07-29d01t02.flac:5a3a4eceabbfbc79af5ce7868f93953d
smothered2021-07-29d01t03.flac:c6201a44abe861efb44c0e640050532f
smothered2021-07-29d01t04.flac:eb23c7f8c0063f8c2dee73fe5ca40d65
smothered2021-07-29d01t05.flac:05fbf2303b056f3021804a14a5d93e73
smothered2021-07-29d01t06.flac:3a8b32472b56753558511ff5a32a43d3
smothered2021-07-29d01t07.flac:070d4b25e98683f3e6cfe7e6851dce84
smothered2021-07-29d01t08.flac:eb7cc0ed755343ef844819c65745ad3b
smothered2021-07-29d01t09.flac:e8bc6e0a955ebc6bdb97c61dc0d177d2
smothered2021-07-29d01t10.flac:7ac144f180355354cd066a81aa8c40fa
smothered2021-07-29d01t11.flac:2cdc5f25417419868bf663c6d55a66c0
smothered2021-07-29d02t01.flac:c99e28b13923f327daf9cfb0762e506b
smothered2021-07-29d02t02.flac:2b3a7aef9212bf79a1da08c27ef71c1d
smothered2021-07-29d02t03.flac:9ca118d105717d544e453e08fcb554d6
smothered2021-07-29d02t04.flac:b66e0bc0c5d1f5e1d5647ad9d214730b
smothered2021-07-29d02t05.flac:2d2810138d7a9c9010cfa53b9dfc7e8b
smothered2021-07-29d02t06.flac:afd921ab9269727e46052a3c1d8d0f67
smothered2021-07-29d02t07.flac:8c55fc77033d3dbbb23f0b1d4f4e8b2d
smothered2021-07-29d02t08.flac:5268678b23f6bcff626befec95148275
smothered2021-07-29d02t09.flac:87286ac12a966f25ad0340e747fe83de

 length     expanded size    cdr  WAVE problems  fmt   ratio  filename
     3:51.41       40844876 B   ---   --   ---xx   flac  0.5803  smothered2021-07-29d01t01.flac
     6:31.70       69137084 B   ---   --   ---xx   flac  0.5465  smothered2021-07-29d01t02.flac
     4:05.30       43288604 B   ---   --   ---xx   flac  0.5861  smothered2021-07-29d01t03.flac
     5:12.59       55175612 B   ---   --   ---xx   flac  0.5766  smothered2021-07-29d01t04.flac
     5:48.34       61467212 B   ---   --   ---xx   flac  0.5361  smothered2021-07-29d01t05.flac
     5:26.73       57678140 B   ---   --   ---xx   flac  0.5821  smothered2021-07-29d01t06.flac
     3:56.01       41632796 B   ---   --   ---xx   flac  0.5692  smothered2021-07-29d01t07.flac
     3:30.30       37114604 B   ---   --   ---xx   flac  0.5681  smothered2021-07-29d01t08.flac
     7:14.25       76616444 B   ---   --   ---xx   flac  0.5132  smothered2021-07-29d01t09.flac
     4:42.07       49761308 B   ---   --   ---xx   flac  0.5256  smothered2021-07-29d01t10.flac
     4:28.32       47350508 B   ---   --   ---xx   flac  0.4449  smothered2021-07-29d01t11.flac
     3:49.41       40492076 B   ---   --   ---xx   flac  0.5402  smothered2021-07-29d02t01.flac
     2:36.51       27638396 B   ---   --   ---xx   flac  0.5617  smothered2021-07-29d02t02.flac
     4:29.30       47522204 B   ---   --   ---xx   flac  0.5670  smothered2021-07-29d02t03.flac
     4:42.12       49773068 B   ---   --   ---xx   flac  0.5438  smothered2021-07-29d02t04.flac
     3:45.01       39692396 B   ---   --   ---xx   flac  0.5597  smothered2021-07-29d02t05.flac
     3:44.21       39563036 B   ---   --   ---xx   flac  0.5508  smothered2021-07-29d02t06.flac
     3:19.60       35244764 B   ---   --   ---xx   flac  0.5397  smothered2021-07-29d02t07.flac
     4:22.59       46355612 B   ---   --   ---xx   flac  0.5511  smothered2021-07-29d02t08.flac
     7:37.48       80727740 B   ---   --   ---xx   flac  0.5452  smothered2021-07-29d02t09.flac
    93:15.50      987076480 B                            0.5476  (20 files)





More information about the bittorrent mailing list