[bittorrent] Phish Ameris Bank Amphitheatre Alpharetta, Georgia 8/1/2021 (Z-Man Schoeps CCM4V'S)

Automated Mailer noreply-bt.e at etree.org
Mon Aug 2 07:54:57 UTC 2021


Band:           Phish
Torrent Name:   Phish Ameris Bank Amphitheatre Alpharetta, Georgia 8/1/2021  (Z-Man Schoeps CCM4V'S)
Uploaded by:    zmanatl
DB Link:        
Details:        http://bt.etree.org/details.php?id=613349

Contact the seeder at http://db.etree.org/zmanatl

If the link to this show does not work, it was probably removed for
being non-trade-friendly.

Description / text file:
-------------------------
Phish
Ameris Bank Amphitheatre
Alpharetta, Georgia
8/1/2021 

Source: Schoeps CCM4V'S>Lunatec V2>Sound Devices 722 (24/44.1)
BOB/DFC/KFC/ZFC/AARP ADA Section Behind Section 103, 7 1/2' High
DSP: Sound Devices 722>Sound Forge 10.0>CD Wave>flac(16)
ID3 Tagged In Foobar 2000
Recorded By: Z-Man
Seeded By: Z-Man
A Team Dirty South Recording

Happy Birthday Jerry Garcia!!!

Disc I 1st Set

01 Buried Alive >
02 Set Your Soul Free 
03 Reba
04 My Friend, My Friend
05 555
06 Kill Devil Falls 
07 Gotta Jibbou > 
08 Sparkle 
09 Thread 
10 Meat 
11 Run Lika An Antelope

Disc II 2nd Set 

01 More 
02 Tweezer >
03 Twist >
04 Piper >
05 Farmhouse >
06 Waste >
07 First Tube

Disc III Encore

01 Sleeping Monkey >
02 Tweezer Reprise

Trey Anastasio - Guitar And Vocals
Mike Gordon - Bass And Vocals
Page McConnell - Keyboards And Vocals
John Fishman - Drums And Vocals

phish2021-08-01d01t01.flac:8c3007d6bec576e3928973782e619a9c
phish2021-08-01d01t02.flac:6185fdb6aa9728a0d3a65f78bcb5ba2d
phish2021-08-01d01t03.flac:33f7c7860ddd8b1974c80ea6007eef0c
phish2021-08-01d01t04.flac:993bfd40c4fdea19baa29d075aeace39
phish2021-08-01d01t05.flac:91c4350e3015cdd4d2b87476fbc14dc1
phish2021-08-01d01t06.flac:70bfec63ef4ab4031581c0d730fbcc73
phish2021-08-01d01t07.flac:0fcb55a28448b854722fafa90e6cae18
phish2021-08-01d01t08.flac:6641dbab1fc7a56464a6faa8a7c547d5
phish2021-08-01d01t09.flac:6bf5546ed60e2d0916720ecd34759b7b
phish2021-08-01d01t10.flac:c89e61074e568534044f8ced357f3f19
phish2021-08-01d01t11.flac:f9c765b26a3e323eada74bb7c6fffcb3
phish2021-08-01d02t01.flac:a4264a0bcd1b9b7ba8108db05f965c26
phish2021-08-01d02t02.flac:6fff2a8956e07caf7864efed00e64456
phish2021-08-01d02t03.flac:fce552149afc4b7e01ad595f4fe5f5b6
phish2021-08-01d02t04.flac:2bb674b36e6d71a00ecdc01c8df6c7f3
phish2021-08-01d02t05.flac:a52f53b2bc5ead9f41ca251b490898e2
phish2021-08-01d02t06.flac:8b385a62d9d3981f83e4cf00e59fd7ae
phish2021-08-01d02t07.flac:ce6c5de3c0744dda010db0ddbbf786b2
phish2021-08-01d03t01.flac:c4f7f92360a8dc00f7bab4f853ecdb16
phish2021-08-01d03t02.flac:f38a508e33d851c5bb3c27c6b24d119a

 length     expanded size    cdr  WAVE problems  fmt   ratio  filename
     3:13.39       34136972 B   ---   --   ---xx   flac  0.5027  phish2021-08-01d01t01.flac
    10:35.04      112023452 B   ---   --   ---xx   flac  0.5228  phish2021-08-01d01t02.flac
    11:32.00      122068844 B   ---   --   ---xx   flac  0.5015  phish2021-08-01d01t03.flac
     7:53.00       83437244 B   ---   --   ---xx   flac  0.5130  phish2021-08-01d01t04.flac
     6:10.04       65277452 B   ---   --   ---xx   flac  0.5322  phish2021-08-01d01t05.flac
     6:58.06       73749356 B   ---   --   ---xx   flac  0.5437  phish2021-08-01d01t06.flac
     8:35.56       90977756 B   ---   --   ---xx   flac  0.5045  phish2021-08-01d01t07.flac
     5:42.05       60340604 B   ---   --   ---xx   flac  0.4809  phish2021-08-01d01t08.flac
     9:08.09       96688412 B   ---   --   ---xx   flac  0.5094  phish2021-08-01d01t09.flac
     5:15.68       55725980 B   ---   --   ---xx   flac  0.4898  phish2021-08-01d01t10.flac
    11:53.28      125839100 B   ---   --   ---xx   flac  0.5242  phish2021-08-01d01t11.flac
     5:32.22       58616588 B   ---   --   ---xx   flac  0.5309  phish2021-08-01d02t01.flac
    33:47.12      357591068 B   ---   --   ---xx   flac  0.5468  phish2021-08-01d02t02.flac
    11:14.73      119065340 B   ---   --   ---xx   flac  0.5213  phish2021-08-01d02t03.flac
    11:07.43      117759980 B   ---   --   ---xx   flac  0.5410  phish2021-08-01d02t04.flac
     5:37.37       59533868 B   ---   --   ---xx   flac  0.4568  phish2021-08-01d02t05.flac
     6:03.14       64066172 B   ---   --   ---xx   flac  0.4679  phish2021-08-01d02t06.flac
     6:35.01       69680396 B   ---   --   ---xx   flac  0.5630  phish2021-08-01d02t07.flac
     5:14.73       55561340 B   ---   --   ---xx   flac  0.4621  phish2021-08-01d03t01.flac
     3:44.44       39617132 B   ---   --   ---xx   flac  0.5347  phish2021-08-01d03t02.flac
   175:54.13     1861757056 B                            0.5198  (20 files)







More information about the bittorrent mailing list