[bittorrent] Phish Ameris Bank Amphitheatre Alpharetta, Georgia 7/31/2021 (Z-Man Schoeps CCM4V'S)

Automated Mailer noreply-bt.e at etree.org
Sun Aug 1 06:31:16 UTC 2021


Band:           Phish
Torrent Name:   Phish Ameris Bank Amphitheatre Alpharetta, Georgia 7/31/2021  (Z-Man Schoeps CCM4V'S)
Uploaded by:    zmanatl
DB Link:        
Details:        http://bt.etree.org/details.php?id=613335

Contact the seeder at http://db.etree.org/zmanatl

If the link to this show does not work, it was probably removed for
being non-trade-friendly.

Description / text file:
-------------------------
Phish
Ameris Bank Amphitheatre
Alpharetta, Georgia
7/31/2021 

Source: Schoeps CCM4V'S>Lunatec V2>Sound Devices 722 (24/44.1)
BOB/DFC/KFC/ZFC/AARP ADA Section Behind Section 103, 7 1/2' High
DSP: Sound Devices 722>Sound Forge 10.0>CD Wave>flac(16)
ID3 Tagged In Foobar 2000
Recorded By: Z-Man
Seeded By: Z-Man
A Team Dirty South Recording

Disc I 1st Set

01 Sand
02 Everything's Right 
03 Turtle In The Clouds
04 Maze 
05 Destiny Unbound 
06 Foam 
07 Stash 
08 Bathtub Gin

Disc II 2nd Set 

01 Chalkdust Torture >
02 Steam >
03 Prince Caspian >
04 Golgi Apparatus >
05 AC/DC Bag >
06 Shade >
07 Mike's Song >
08 Silent In The Morning >
09 Weekapaug Groove 

Disc III Encore

01 A Life Beyond The Dream
02 Cavern

Trey Anastasio - Guitar And Vocals
Mike Gordon - Bass And Vocals
Page McConnell - Keyboards And Vocals
John Fishman - Drums And Vocals

phish2021-07-31d01t01.flac:deb389ad0860fcc3cb5226a170bfba9d
phish2021-07-31d01t02.flac:2c753afbe62eb781c6d7e1725de4dc94
phish2021-07-31d01t03.flac:b67abac77e56a75b67d480a82ee5a761
phish2021-07-31d01t04.flac:51d45c2b5332099d527762b1fce7bb84
phish2021-07-31d01t05.flac:8c47244fa6f808debd9cee9d3260ba74
phish2021-07-31d01t06.flac:e1da03c1e7faf350a1e96e34e0f9f70a
phish2021-07-31d01t07.flac:e7a3d8bd5dd0bfec1c6643999edafcdd
phish2021-07-31d01t08.flac:c31e7c1fee64bd099465b4cd77c9183f
phish2021-07-31d02t01.flac:e7273ccd874b6fcdf5b7fd9ec6b58244
phish2021-07-31d02t02.flac:52d4331d31375cc3c2fe9ec0054359a2
phish2021-07-31d02t03.flac:fc8c62e01758fde0b23daa358ceeb406
phish2021-07-31d02t04.flac:b44b9e9ea2c9caf569e8a3a77ed6f20d
phish2021-07-31d02t05.flac:d4c69b6a8a938f1240cc10b8182aa983
phish2021-07-31d02t06.flac:951a4fb8e8dbc58063589343fae1bf55
phish2021-07-31d02t07.flac:c655a1f715c1d9ec1043e4effa4e814a
phish2021-07-31d02t08.flac:aaa74613138a454a8017256952de07d8
phish2021-07-31d02t09.flac:a07cf5a41e965adfa589aa1ab24cff8e
phish2021-07-31d03t01.flac:ed76ab6efb5d0c065cbee7481c33d3cc
phish2021-07-31d03t02.flac:edc97837bf7ae1928591338d6179434e

length     expanded size    cdr  WAVE problems  fmt   ratio  filename
     9:32.64      101051372 B   ---   --   ---xx   flac  0.5185  phish2021-07-31d01t01.flac
    15:48.50      167344844 B   ---   --   ---xx   flac  0.5165  phish2021-07-31d01t02.flac
     7:19.44       77543132 B   ---   --   ---xx   flac  0.5356  phish2021-07-31d01t03.flac
    10:01.10      106039964 B   ---   --   ---xx   flac  0.5305  phish2021-07-31d01t04.flac
     7:36.27       80501948 B   ---   --   ---xx   flac  0.5130  phish2021-07-31d01t05.flac
     8:31.43       90241580 B   ---   --   ---xx   flac  0.4941  phish2021-07-31d01t06.flac
    11:44.56      124317356 B   ---   --   ---xx   flac  0.5139  phish2021-07-31d01t07.flac
    11:53.07      125789708 B   ---   --   ---xx   flac  0.5199  phish2021-07-31d01t08.flac
    26:18.44      278462732 B   ---   --   ---xx   flac  0.5209  phish2021-07-31d02t01.flac
     6:48.67       72128828 B   ---   --   ---xx   flac  0.5113  phish2021-07-31d02t02.flac
     9:34.60      101394764 B   ---   --   ---xx   flac  0.5233  phish2021-07-31d02t03.flac
     4:42.72       49914188 B   ---   --   ---xx   flac  0.5275  phish2021-07-31d02t04.flac
     6:05.65       64538924 B   ---   --   ---xx   flac  0.5218  phish2021-07-31d02t05.flac
     4:18.12       45539468 B   ---   --   ---xx   flac  0.4496  phish2021-07-31d02t06.flac
     7:36.49       80553692 B   ---   --   ---xx   flac  0.5307  phish2021-07-31d02t07.flac
     4:36.53       48811100 B   ---   --   ---xx   flac  0.4925  phish2021-07-31d02t08.flac
     9:09.32       96918908 B   ---   --   ---xx   flac  0.5289  phish2021-07-31d02t09.flac
     7:51.47       83194988 B   ---   --   ---xx   flac  0.4694  phish2021-07-31d03t01.flac
     5:42.68       60488780 B   ---   --   ---xx   flac  0.5325  phish2021-07-31d03t02.flac
   175:14.45     1854776276 B                            0.5157  (19 files)






More information about the bittorrent mailing list