[bittorrent] WSP 2001-07-06 Riverport Amphitheatre - Maryland Heights, MO [AKG 451]

Automated Mailer noreply-bt.e at etree.org
Sun Jun 30 20:36:22 UTC 2019


Band:           Other
Torrent Name:   WSP 2001-07-06 Riverport Amphitheatre - Maryland Heights, MO [AKG 451]
Uploaded by:    mfalcon
DB Link:        
Details:        http://bt.etree.org/details.php?id=606028

Contact the seeder at http://db.etree.org/mfalcon

If the link to this show does not work, it was probably removed for
being non-trade-friendly.

Description / text file:
-------------------------
Widespread Panic
Saturday
07/07/2001
Riverport Amphitheatre
Maryland Heights, MO 

Source: AKG 451EB/ck1s -> Tascam DA-P1
Location: DIN | DFC | front row of OTS | Seat L119 | 8ft
Transfer: Sony R500 -> Tascam HD-P2 @ 16/48 -> HDD -> Amadeus Pro (tracking/fades/FLAC8)
DSP: 16/48 .flac's -> .wav -> WaveLab -> 16/44.1 .wav's -> .flac (6)
Recorded and transferred by Mike Darby
DSP'd, compiled and seeded by Dustin Hassenstab


Disc 1
Set 1:
01. [00:33] Crowd
02. [08:42] Bear's Gone Fishin'
03. [06:44] Tall Boy
04. [07:44] Blight
05. [05:57] Casa Del Grillo
06. [05:47] Radio Child
07. [08:40] Ride Me High
08. [06:33] Proving Ground
09. [05:09] Thought Sausage
Set 2:
10. [00:48] Crowd/Tuning
11. [04:20] Action Man
12. [05:04] Makes Sense To Me
13. [04:19] Don't Tell The Band
14. [06:59] Visiting Day

Disc 2
01. [01:55] Intro of SCI | crowd
02. [25:45] It Ain't No Use* -> Jam** ->
03. [11:47] Drums*** ->
04. [04:07] Drums/Bass
05. [08:27] Vacation
06. [05:51] Sleeping Man
07. [06:49] All Time Low
Encore:
08. [06:48] Last Dance

*   with Bill Nershi on guitar / Kyle Hollingsworth on keys / Michael Kang on mandolin /
    Michael Travis on percussion
**  with Bill Nershi on guitar / Michael Kang on mandolin / Michael Travis on percussion
*** with Michael Travis on percussion


    length     expanded size   cdr  WAVE problems filename
     0:33.00        5821244    ---   --   ---xx   wsp2001-07-07.akg451.d1t01.flac
     8:42.00       92080844    ---   --   ---xx   wsp2001-07-07.akg451.d1t02.flac
     6:44.00       71265644    ---   --   ---xx   wsp2001-07-07.akg451.d1t03.flac
     7:44.00       81849644    ---   --   ---xx   wsp2001-07-07.akg451.d1t04.flac
     5:57.00       62974844    ---   --   ---xx   wsp2001-07-07.akg451.d1t05.flac
     5:47.00       61210844    ---   --   ---xx   wsp2001-07-07.akg451.d1t06.flac
     8:40.30       91798604    ---   --   ---xx   wsp2001-07-07.akg451.d1t07.flac
     6:33.45       69431084    ---   --   ---xx   wsp2001-07-07.akg451.d1t08.flac
     5:09.00       54507644    ---   --   ---xx   wsp2001-07-07.akg451.d1t09.flac
     0:48.00        8467244    ---   --   ---xx   wsp2001-07-07.akg451.d1t10.flac
     4:20.00       45864044    ---   --   ---xx   wsp2001-07-07.akg451.d1t11.flac
     5:04.00       53625644    ---   --   ---xx   wsp2001-07-07.akg451.d1t12.flac
     4:19.00       45687644    ---   --   ---xx   wsp2001-07-07.akg451.d1t13.flac
     6:59.00       73911644    ---   --   ---xx   wsp2001-07-07.akg451.d1t14.flac
     1:55.00       20286044    ---   --   ---xx   wsp2001-07-07.akg451.d2t01.flac
    25:45.00      272538044    ---   --   ---xx   wsp2001-07-07.akg451.d2t02.flac
    11:47.00      124714844    ---   --   ---xx   wsp2001-07-07.akg451.d2t03.flac
     4:07.03       43577900    ---   --   ---xx   wsp2001-07-07.akg451.d2t04.flac
     8:27.72       89604188    ---   --   ---xx   wsp2001-07-07.akg451.d2t05.flac
     5:51.00       61916444    ---   --   ---xx   wsp2001-07-07.akg451.d2t06.flac
     6:49.00       72147644    ---   --   ---xx   wsp2001-07-07.akg451.d2t07.flac
     6:48.01       71973596    ---   --   ---xx   wsp2001-07-07.akg451.d2t08.flac
   148:50.01     1575255320 B                     (totals for 22 files, 0.5832 overall compression ratio)

; flac fingerprint file generated by Trader's Little Helper
; generated on November 19, 2008, at 10:11 pm

wsp2001-07-07.akg451.d1t01.flac:4e20e7b84bb7c63ec70f3654d841931f
wsp2001-07-07.akg451.d1t02.flac:dce6a43ad684393f5eaf9e845cc8d0a0
wsp2001-07-07.akg451.d1t03.flac:372a2cec09f2c587825e89c793bd9820
wsp2001-07-07.akg451.d1t04.flac:53cd530326748cd83bc6cfc8afa3c035
wsp2001-07-07.akg451.d1t05.flac:e46e639efba154b99172671059b14d50
wsp2001-07-07.akg451.d1t06.flac:627d198f43c83243977c9e93062a3813
wsp2001-07-07.akg451.d1t07.flac:263aa7e01ad145285979f189886133c2
wsp2001-07-07.akg451.d1t08.flac:e47ccc9b0143739e06ab92260dde884a
wsp2001-07-07.akg451.d1t09.flac:1c71a94642a0478c27ef3d575ce14bcc
wsp2001-07-07.akg451.d1t10.flac:e6f748dbabd2bd71a5eadce9b3c9e42d
wsp2001-07-07.akg451.d1t11.flac:c49b235569c19c9970eed0d3bf33fc62
wsp2001-07-07.akg451.d1t12.flac:af89439089bbc0d5d61dec3ce67a01ee
wsp2001-07-07.akg451.d1t13.flac:2e7214eefac60563f3bdc68d93ff862c
wsp2001-07-07.akg451.d1t14.flac:b7075a340c179ea5940fc526de72727b
wsp2001-07-07.akg451.d2t01.flac:ccd772c4e8d8e01316637eed4a9932e3
wsp2001-07-07.akg451.d2t02.flac:190943e6d9b345030fc34112ce772c69
wsp2001-07-07.akg451.d2t03.flac:2cef117a938403eef9c19acd7bb6cd18
wsp2001-07-07.akg451.d2t04.flac:6523650f71188fee3efacff3b2c6cb57
wsp2001-07-07.akg451.d2t05.flac:6f5d3ce5294425e64a5cc5befbbc80e9
wsp2001-07-07.akg451.d2t06.flac:fca25f937eb3c009fc8e56d0c0ee025a
wsp2001-07-07.akg451.d2t07.flac:97360cb14eb4daa050cfc15ce4df2ee2
wsp2001-07-07.akg451.d2t08.flac:fedf8c125d7465fb32755f93b77385f7



More information about the bittorrent mailing list