[bittorrent] widespread Panic Red Rocks Amphitheatre Morrison, Colorado 6/29/2019 (Schoeps CCM4V'S)

Automated Mailer noreply-bt.e at etree.org
Sun Jun 30 09:58:07 UTC 2019


Band:           Widespread Panic
Torrent Name:   widespread Panic Red Rocks Amphitheatre Morrison, Colorado 6/29/2019 (Schoeps CCM4V'S)
Uploaded by:    zmanatl
DB Link:        
Details:        http://bt.etree.org/details.php?id=606014

Contact the seeder at http://db.etree.org/zmanatl

If the link to this show does not work, it was probably removed for
being non-trade-friendly.

Description / text file:
-------------------------
Widespread Panic
Red Rocks Amphitheatre
Morrison, Colorado
6/29/2019 

Source: Schoeps CCM4V'S>Lunatec V2>Sound Devices 722 (24/44.1)
BOB/DFC/KFC/ZFC/AARP Center Section, Clamped To The Rail,6 1/2' High
DSP: Sound Devices 722>Sound Forge 10.0>CD Wave>flac(16)
ID3 Tagged In Foobar 2000
Recorded By: Z-Man
Seeded By: Z-Man 

Disc I 1st Set 

01 Greeting 
02 *Ain't Life Grand >
03 Mr. Soul 
04 Good People >
05 Dark Bar >
06 Good People
07 Wonderin' 
08 Walkin' >
09 A Of D >
10 Jam > 
11 St. Ex >
12 Flat-Foot Flewsy

Disc II 2nd Set

01 Climb To Safety 
02 On Your Way Down >
03 Provin' Ground >
04 Jack
05 Bowl Legged Woman >
06 Space Jam >
07 Arlene >

Disc III 2nd Set Con't

01 Drum Solo >
02 Arlene >
03 Bowl Legged Woman 
04 Blight 
05 Tie Your Shoes >
06 Space Wrangler
Encore:
07 End Of The SHow 
08 Protein Drink >
09 Sewing Machine

* Played In The Memory Of Pace Taylor Who Tragically Lost His Life A Year Ago Tonight After The 
Mud Island Show.

There Was Quite A Bit Of Wind Throughut The Show. As A Result, You Can Hear Some PhasingOn Certain Songs

wsp2019-06-29d01t01.flac:6efca6b64c1f80e6d8980a066d6a836d
wsp2019-06-29d01t02.flac:8b8ea9a006313f77795b980e8af5e2e6
wsp2019-06-29d01t03.flac:abf4a2ae1943a35dd0d2aa72de4d4c12
wsp2019-06-29d01t04.flac:31be92cd4b83f0155462f2719d2b44a0
wsp2019-06-29d01t05.flac:9d1b8795877abf30dcb64599073bf79a
wsp2019-06-29d01t06.flac:fe1dd503c48731f0c768503015601814
wsp2019-06-29d01t07.flac:e1f2cd8a0f7370421f8b89264cf5abb9
wsp2019-06-29d01t08.flac:d4f1339daf584c280e28dce63fe4c829
wsp2019-06-29d01t09.flac:d3c769d7f81897cb28334f37847385e1
wsp2019-06-29d01t10.flac:e630bf5e36217781a383bf159c956a67
wsp2019-06-29d01t11.flac:687e6e16b8f2c4e793106eaa767f7d78
wsp2019-06-29d01t12.flac:f121cc9f8cb1fb73061329a334f77f68
wsp2019-06-29d02t01.flac:95f68914a59304909f794551436daeac
wsp2019-06-29d02t02.flac:60eee50a5c5af0e393c7f511f6418e8b
wsp2019-06-29d02t03.flac:57ee2c7837da2fac54ec8ce62a8ba5cb
wsp2019-06-29d02t04.flac:2c38dd3fc87cd7c8706dfb881c100bd8
wsp2019-06-29d02t05.flac:cb06baebffaba42fb20d5b292bcc6b4e
wsp2019-06-29d02t06.flac:6d6c9e6dfab2801c1832bd0457ad8263
wsp2019-06-29d02t07.flac:836876a6b253623a7704c95d8f700694
wsp2019-06-29d03t01.flac:49e8e0bc33f64c49f2f8ef02fa2956d0
wsp2019-06-29d03t02.flac:d94b3178923b5d9b1b40e8e7aa773bfe
wsp2019-06-29d03t03.flac:8c0d5ca03fb2398944a03a08204d473f
wsp2019-06-29d03t04.flac:0f79f7e7bf61382fefd45c64533b59ba
wsp2019-06-29d03t05.flac:d9d6d9c5481687cb8f51d95936f9d62a
wsp2019-06-29d03t06.flac:5292606ca7e52b96acabe52c8b309ed3
wsp2019-06-29d03t07.flac:664280e3f7dd1976d48c9cc5e819f5fd
wsp2019-06-29d03t08.flac:be9323d48d96c827806bbbe90d2347f9
wsp2019-06-29d03t09.flac:4bba3520d60bad53efaee0e51c4d45c0

length     expanded size    cdr  WAVE problems  fmt   ratio  filename
     0:32.02        5649548 B   ---   --   ---xx   flac  0.2902  wsp2019-06-29d01t01.flac
     4:45.60       50415164 B   ---   --   ---xx   flac  0.4449  wsp2019-06-29d01t02.flac
     6:02.30       63927404 B   ---   --   ---xx   flac  0.4723  wsp2019-06-29d01t03.flac
     2:37.37       27781868 B   ---   --   ---xx   flac  0.4528  wsp2019-06-29d01t04.flac
     5:59.65       63480524 B   ---   --   ---xx   flac  0.4113  wsp2019-06-29d01t05.flac
     4:20.30       45934604 B   ---   --   ---xx   flac  0.4516  wsp2019-06-29d01t06.flac
     4:57.70       52555484 B   ---   --   ---xx   flac  0.4463  wsp2019-06-29d01t07.flac
     5:07.12       54183068 B   ---   --   ---xx   flac  0.4577  wsp2019-06-29d01t08.flac
     3:08.17       33203228 B   ---   --   ---xx   flac  0.4485  wsp2019-06-29d01t09.flac
     7:23.34       78225212 B   ---   --   ---xx   flac  0.4073  wsp2019-06-29d01t10.flac
     7:17.34       77166812 B   ---   --   ---xx   flac  0.4399  wsp2019-06-29d01t11.flac
     7:34.40       80179724 B   ---   --   ---xx   flac  0.4800  wsp2019-06-29d01t12.flac
     7:04.11       74819516 B   ---   --   ---xx   flac  0.4086  wsp2019-06-29d02t01.flac
     7:23.54       78272252 B   ---   --   ---xx   flac  0.4165  wsp2019-06-29d02t02.flac
     8:47.68       93122780 B   ---   --   ---xx   flac  0.4491  wsp2019-06-29d02t03.flac
     8:51.45       93774284 B   ---   --   ---xx   flac  0.3970  wsp2019-06-29d02t04.flac
     5:21.12       56652668 B   ---   --   ---xx   flac  0.4456  wsp2019-06-29d02t05.flac
     6:33.74       69499292 B   ---   --   ---xx   flac  0.3870  wsp2019-06-29d02t06.flac
    10:16.69      108824732 B   ---   --   ---xx   flac  0.4683  wsp2019-06-29d02t07.flac
    11:03.23      117007340 B   ---   --   ---xx   flac  0.4247  wsp2019-06-29d03t01.flac
     5:21.52       56746748 B   ---   --   ---xx   flac  0.4828  wsp2019-06-29d03t02.flac
     2:35.00       27342044 B   ---   --   ---xx   flac  0.4722  wsp2019-06-29d03t03.flac
    12:08.71      128586236 B   ---   --   ---xx   flac  0.4178  wsp2019-06-29d03t04.flac
     8:55.03       94381100 B   ---   --   ---xx   flac  0.4269  wsp2019-06-29d03t05.flac
    10:05.42      106820828 B   ---   --   ---xx   flac  0.4479  wsp2019-06-29d03t06.flac
     6:49.19       72192332 B   ---   --   ---xx   flac  0.3485  wsp2019-06-29d03t07.flac
     3:59.54       42286652 B   ---   --   ---xx   flac  0.4168  wsp2019-06-29d03t08.flac
     8:25.72       89251388 B   ---   --   ---xx   flac  0.4952  wsp2019-06-29d03t09.flac
   183:30.50     1942282832 B                            0.4352  (28 files)




More information about the bittorrent mailing list