[bittorrent] widespread Panic Red Rocks Amphitheatre Morrison, Colorado 6/28/2019 (Schoeps CCM4V'S)

Automated Mailer noreply-bt.e at etree.org
Sat Jun 29 09:45:23 UTC 2019


Band:           Widespread Panic
Torrent Name:   widespread Panic Red Rocks Amphitheatre Morrison, Colorado 6/28/2019 (Schoeps CCM4V'S)
Uploaded by:    zmanatl
DB Link:        
Details:        http://bt.etree.org/details.php?id=605999

Contact the seeder at http://db.etree.org/zmanatl

If the link to this show does not work, it was probably removed for
being non-trade-friendly.

Description / text file:
-------------------------
Widespread Panic
Red Rocks Amphitheatre
Morrison, Colorado
6/28/2019 

Source: Schoeps CCM4V'S>Lunatec V2>Sound Devices 722 (24/44.1)
BOB/DFC/KFC/ZFC/AARP Center Section, Clamped To The Rail,6 1/2' High
DSP: Sound Devices 722>Sound Forge 10.0>CD Wave>flac(16)
ID3 Tagged In Foobar 2000
Recorded By: Z-Man
Seeded By: Z-Man 

Disc I 1st Set 

01 Puppy Sleeps >
02 Henry Parson's Died 
03 Walk On >
04 Jam >
05 Fishwater >
06 Drum Solo >
07 Fishwater
08 Under The Radar Jam >
09 Rock 
10 Rebirtha >
11 Pigeons

Disc II 2nd Set

01 Down On The Farm 
02 Tall Boy >
03 Jam >
04 Little Lilly >
05 Jam >
06 Machine >
07 Barstools And Dreamers
08 Love Tractor >
09 Jam >
10 I'm Not Alone 
11 Big Wooly Mammoth >
12 Lawyers, Guns, And Money

Disc III 2nd Set Con't

01 Rumble
02 Chilly Water

wsp2019-06-28d01t01.flac:05e50520a02321e17bea38d83af550f6
wsp2019-06-28d01t02.flac:d7c6a1824b9f298fdc692c55b8240e19
wsp2019-06-28d01t03.flac:4bba3d042da6191ab8e711a8fa3621dc
wsp2019-06-28d01t04.flac:640843b0e3c08c9d9918fca316d29924
wsp2019-06-28d01t05.flac:76df71b63d1335fd5d30b5a183778bd2
wsp2019-06-28d01t06.flac:69eb583fc5abc1fc88db15ceb6229244
wsp2019-06-28d01t07.flac:10953a3061dca6bfdc134e6334c685d7
wsp2019-06-28d01t08.flac:fe163181efb0232c9c3808a63db1fd4f
wsp2019-06-28d01t09.flac:fef046142557cf84133121a1188eb3d8
wsp2019-06-28d01t10.flac:fb11166bd281a9a51c26ea2936ab4c7f
wsp2019-06-28d01t11.flac:1fd55780150d7f99e73e63ad0bc9c754
wsp2019-06-28d02t01.flac:405782025687327dcf7c74c1e776c066
wsp2019-06-28d02t02.flac:0ce550f5b07f3183e508a8596537a1b2
wsp2019-06-28d02t03.flac:ba2143609b15c171a3d4c991cf82d2fe
wsp2019-06-28d02t04.flac:023883098c61098d6522b91ac6f09311
wsp2019-06-28d02t05.flac:0d8b8abcba1abc37f7175d2fb761a48e
wsp2019-06-28d02t06.flac:68202bcca8170d2d95a75040f1bf0a6b
wsp2019-06-28d02t07.flac:9e9fed6a23313a528b3ba6c0d8240107
wsp2019-06-28d02t08.flac:4d346a64a8bcbfd864b8d159b169ea4e
wsp2019-06-28d02t09.flac:f0ba83a312094ac6ef74560ad8f6fa4a
wsp2019-06-28d02t10.flac:1da31f91faae46a1d1a9c93a9e1b0162
wsp2019-06-28d02t11.flac:6363198321d2b462af25592a574674a2
wsp2019-06-28d02t12.flac:ecba137524af8bf0684da1f5309f143d
wsp2019-06-28d03t01.flac:d5c0bc0c6ae2e820aa510c65fc81cd2a
wsp2019-06-28d03t02.flac:0fdd3a33236d8967cd83c29d5efe5095

length     expanded size    cdr  WAVE problems  fmt   ratio  filename
     6:39.67       70541228 B   ---   --   ---xx   flac  0.4157  wsp2019-06-28d01t01.flac
     7:06.22       75198188 B   ---   --   ---xx   flac  0.4080  wsp2019-06-28d01t02.flac
     6:48.10       71994764 B   ---   --   ---xx   flac  0.4153  wsp2019-06-28d01t03.flac
     3:27.07       36531308 B   ---   --   ---xx   flac  0.4075  wsp2019-06-28d01t04.flac
     5:20.07       56464508 B   ---   --   ---xx   flac  0.4422  wsp2019-06-28d01t05.flac
     1:02.32       11012108 B   ---   --   ---xx   flac  0.4228  wsp2019-06-28d01t06.flac
     4:03.51       42985196 B   ---   --   ---xx   flac  0.4263  wsp2019-06-28d01t07.flac
     4:50.43       51257180 B   ---   --   ---xx   flac  0.3757  wsp2019-06-28d01t08.flac
     8:49.19       93360332 B   ---   --   ---xx   flac  0.3895  wsp2019-06-28d01t09.flac
     9:40.62      102457868 B   ---   --   ---xx   flac  0.4089  wsp2019-06-28d01t10.flac
     9:48.62      103869068 B   ---   --   ---xx   flac  0.4338  wsp2019-06-28d01t11.flac
     6:34.41       69598076 B   ---   --   ---xx   flac  0.4248  wsp2019-06-28d02t01.flac
     7:09.16       75713276 B   ---   --   ---xx   flac  0.4305  wsp2019-06-28d02t02.flac
     2:11.52       23230748 B   ---   --   ---xx   flac  0.3325  wsp2019-06-28d02t03.flac
     7:09.21       75725036 B   ---   --   ---xx   flac  0.3725  wsp2019-06-28d02t04.flac
     3:31.31       37293356 B   ---   --   ---xx   flac  0.3129  wsp2019-06-28d02t05.flac
     3:22.24       35689292 B   ---   --   ---xx   flac  0.4323  wsp2019-06-28d02t06.flac
    12:41.68      134400380 B   ---   --   ---xx   flac  0.4102  wsp2019-06-28d02t07.flac
     6:47.29       71863052 B   ---   --   ---xx   flac  0.4446  wsp2019-06-28d02t08.flac
     8:48.47       93249788 B   ---   --   ---xx   flac  0.3674  wsp2019-06-28d02t09.flac
     6:29.49       68734892 B   ---   --   ---xx   flac  0.3854  wsp2019-06-28d02t10.flac
     8:33.19       90537932 B   ---   --   ---xx   flac  0.4058  wsp2019-06-28d02t11.flac
     3:45.74       39864092 B   ---   --   ---xx   flac  0.4397  wsp2019-06-28d02t12.flac
     2:58.49       31514492 B   ---   --   ---xx   flac  0.3895  wsp2019-06-28d03t01.flac
    11:13.51      118837196 B   ---   --   ---xx   flac  0.4679  wsp2019-06-28d03t02.flac
   158:54.53     1681923356 B                            0.4105  (25 files)




More information about the bittorrent mailing list