[bittorrent] Phish 2019-06-26 Darling's Waterfront Pavilion Bangor, ME Schoeps mk4v>nbob actives>Naiant PFAs>Sonosax SX-R4+**16bit**

Automated Mailer noreply-bt.e at etree.org
Sat Jun 29 04:36:15 UTC 2019


Band:           Phish
Torrent Name:   Phish 2019-06-26 Darling's Waterfront Pavilion Bangor, ME Schoeps mk4v>nbob actives>Naiant PFAs>Sonosax SX-R4+**16bit**
Uploaded by:    andyjah
DB Link:        
Details:        http://bt.etree.org/details.php?id=605994

Contact the seeder at http://db.etree.org/andyjah

If the link to this show does not work, it was probably removed for
being non-trade-friendly.

Description / text file:
-------------------------
Phish
2019-06-26
Darling’s Waterfront Pavilion
Bangor, ME

Location: OTS/ ROC (Section 202, Row 6, Seat 2)
Source: Schoeps mk4v (~60degrees @ 31cm)>nbob actives>Naiant PFAs>Sonosax SX-R4
Transfer: Sonosax SX-R4+>sd-xc card>MacBook Pro>Audacity(tracking,amplify,fades)>Sony Soundforge Convrt(resample(izotope,highest settings)/dither(mbit+/ultra, high dither)to 16 bit/44.1k)>XAct(FLAC 8,ffp,fix sbe)

Recorded and Transferred by Andy Murray

Set 1: 

01 crowd
02 Crowd Control
03 Plasma
04 Army of One
05 Alaska
06 Kill Devil Falls 
07 How Many People Are You
08 Petrichor > 
09 Saw It Again > 
10 Sand

Set 2:

01 crowd
02 Turtle in the Clouds
03 Gotta Jibboo
04 Fuego > 
05 Cities > 
06 The Final Hurrah > 
07 Prince Caspian > 
08 Farmhouse > 
09 Backwards Down the Number Line > 
10 Chalk Dust Torture
11 encore break
12 The Lizards
13 Suzy Greenberg

;flac fingerprints generated by xACT 2.47 on 2019-06-29 04:16:47 +0000

ph2019-06-26.mk4v.sxr4+.1644.s1t01.flac:001adc40ad4daa609614f501290fcaa1
ph2019-06-26.mk4v.sxr4+.1644.s1t02.flac:b859dcb9aefd8fbde46fdd1bfcf0c33c
ph2019-06-26.mk4v.sxr4+.1644.s1t03.flac:79f993ab863d36da7121031d879ca3fc
ph2019-06-26.mk4v.sxr4+.1644.s1t04.flac:084b70b93b78edd2eb9fe2076d9e6f5b
ph2019-06-26.mk4v.sxr4+.1644.s1t05.flac:a6d6f49e13114613643b042b4e2fbe64
ph2019-06-26.mk4v.sxr4+.1644.s1t06.flac:c5afdbcb01a74cbb1ef24cff46a4faf6
ph2019-06-26.mk4v.sxr4+.1644.s1t07.flac:f344cb5cece85be5619b1939f5beb7aa
ph2019-06-26.mk4v.sxr4+.1644.s1t08.flac:49a5a60fe12245eb9002ae599652750a
ph2019-06-26.mk4v.sxr4+.1644.s1t09.flac:f6363e17a6b36c0ec450fb84f082ce86
ph2019-06-26.mk4v.sxr4+.1644.s1t10.flac:4b8da3ae09c5b80e4ba63373630c3aed
ph2019-06-26.mk4v.sxr4+.1644.s2t01.flac:6acf00799d5a3af69f05d805e4e2fffa
ph2019-06-26.mk4v.sxr4+.1644.s2t02.flac:3e860eba35ba021d10e3e8e3b9b3b000
ph2019-06-26.mk4v.sxr4+.1644.s2t03.flac:ad9fbe2dad656628cf9dd14858292c60
ph2019-06-26.mk4v.sxr4+.1644.s2t04.flac:622dcfef664fb9ffe294e9924274d141
ph2019-06-26.mk4v.sxr4+.1644.s2t05.flac:97bd15a42596ea3f5f2ee8b5b32534ce
ph2019-06-26.mk4v.sxr4+.1644.s2t06.flac:7ffdc7bee3d959c4d2025e1062078914
ph2019-06-26.mk4v.sxr4+.1644.s2t07.flac:e5dd6cb43948fd0314cf4c06cd8cce7f
ph2019-06-26.mk4v.sxr4+.1644.s2t08.flac:0bcd8af750e0ff65cf4c33ae2f81b8f9
ph2019-06-26.mk4v.sxr4+.1644.s2t09.flac:f5c54ea7681685d7d430435686e7a377
ph2019-06-26.mk4v.sxr4+.1644.s2t10.flac:3d2978bd70437b1ac5e923c91edd5ca2
ph2019-06-26.mk4v.sxr4+.1644.s2t11.flac:27c84c2914d0ac498af6e4228a8f52d8
ph2019-06-26.mk4v.sxr4+.1644.s2t12.flac:cbd61f0861d8435e7f34537823bfe1ae
ph2019-06-26.mk4v.sxr4+.1644.s2t13.flac:f91483e58e684ec1919a64958a8fa19b

    length     expanded size    cdr  WAVE problems  fmt   ratio  filename
     1:00.41       10680476 B   ---   --   -----    wav  1.0000  ph2019-06-26.mk4v.sxr4+.1644.s1t01.wav
     4:45.11       50299916 B   ---   --   -----    wav  1.0000  ph2019-06-26.mk4v.sxr4+.1644.s1t02.wav
     8:56.70       94715084 B   ---   --   -----    wav  1.0000  ph2019-06-26.mk4v.sxr4+.1644.s1t03.wav
     4:47.07       50643308 B   ---   --   -----    wav  1.0000  ph2019-06-26.mk4v.sxr4+.1644.s1t04.wav
     8:40.58       91864460 B   ---   --   -----    wav  1.0000  ph2019-06-26.mk4v.sxr4+.1644.s1t05.wav
    11:07.07      117675308 B   ---   --   -----    wav  1.0000  ph2019-06-26.mk4v.sxr4+.1644.s1t06.wav
     9:24.44       99593132 B   ---   --   -----    wav  1.0000  ph2019-06-26.mk4v.sxr4+.1644.s1t07.wav
    16:32.01      174991196 B   ---   --   -----    wav  1.0000  ph2019-06-26.mk4v.sxr4+.1644.s1t08.wav
     4:41.45       49674284 B   ---   --   -----    wav  1.0000  ph2019-06-26.mk4v.sxr4+.1644.s1t09.wav
     9:47.73      103718540 B   ---   --   -----    wav  1.0000  ph2019-06-26.mk4v.sxr4+.1644.s1t10.wav
     1:23.59       14780012 B   ---   --   -----    wav  1.0000  ph2019-06-26.mk4v.sxr4+.1644.s2t01.wav
     6:52.65       72829724 B   ---   --   -----    wav  1.0000  ph2019-06-26.mk4v.sxr4+.1644.s2t02.wav
     7:41.01       81322796 B   ---   --   -----    wav  1.0000  ph2019-06-26.mk4v.sxr4+.1644.s2t03.wav
    17:18.54      183230252 B   ---   --   -----    wav  1.0000  ph2019-06-26.mk4v.sxr4+.1644.s2t04.wav
    13:04.36      138382316 B   ---   --   -----    wav  1.0000  ph2019-06-26.mk4v.sxr4+.1644.s2t05.wav
     6:12.28       65686700 B   ---   --   -----    wav  1.0000  ph2019-06-26.mk4v.sxr4+.1644.s2t06.wav
     4:44.60       50238764 B   ---   --   -----    wav  1.0000  ph2019-06-26.mk4v.sxr4+.1644.s2t07.wav
     4:14.72       44974988 B   ---   --   -----    wav  1.0000  ph2019-06-26.mk4v.sxr4+.1644.s2t08.wav
     7:00.68       74247980 B   ---   --   -----    wav  1.0000  ph2019-06-26.mk4v.sxr4+.1644.s2t09.wav
     8:59.07       95096108 B   ---   --   -----    wav  1.0000  ph2019-06-26.mk4v.sxr4+.1644.s2t10.wav
     2:18.37       24430268 B   ---   --   -----    wav  1.0000  ph2019-06-26.mk4v.sxr4+.1644.s2t11.wav
    10:03.31      106442156 B   ---   --   -----    wav  1.0000  ph2019-06-26.mk4v.sxr4+.1644.s2t12.wav
     7:03.36       74701916 B   ---   --   -----    wav  1.0000  ph2019-06-26.mk4v.sxr4+.1644.s2t13.wav
   176:42.11     1870219684 B                            1.0000  (23 files)





More information about the bittorrent mailing list