[bittorrent] Phish 2019-06-26 Darling's Waterfront Pavilion Bangor, ME Schoeps mk41v>kc5>cmc6>Sonosax SX-R4+**16bit**

Automated Mailer noreply-bt.e at etree.org
Sat Jun 29 04:32:50 UTC 2019


Band:           Phish
Torrent Name:   Phish 2019-06-26 Darling's Waterfront Pavilion Bangor, ME Schoeps mk41v>kc5>cmc6>Sonosax SX-R4+**16bit**
Uploaded by:    andyjah
DB Link:        
Details:        http://bt.etree.org/details.php?id=605992

Contact the seeder at http://db.etree.org/andyjah

If the link to this show does not work, it was probably removed for
being non-trade-friendly.

Description / text file:
-------------------------
Phish
2019-06-26
Darling’s Waterfront Pavilion
Bangor, ME

Location: OTS/ ROC (Section 202, Row 6, Seat 2)
Source: Schoeps mk41v (~70degrees @ 21cm)>kc5>cmc6>Sonosax SX-R4
Transfer: Sonosax SX-R4+>sd-xc card>MacBook Pro>Audacity(tracking,amplify,fades)>Sony Soundforge Convrt(resample(izotope,highest settings)/dither(mbit+/ultra, high dither)to 16 bit/44.1k)>XAct(FLAC 8,ffp,fix sbe)

Recorded and Transferred by Andy Murray

Set 1: 

01 crowd
02 Crowd Control
03 Plasma
04 Army of One
05 Alaska
06 Kill Devil Falls 
07 How Many People Are You
08 Petrichor > 
09 Saw It Again > 
10 Sand

Set 2:

01 crowd
02 Turtle in the Clouds
03 Gotta Jibboo
04 Fuego > 
05 Cities > 
06 The Final Hurrah > 
07 Prince Caspian > 
08 Farmhouse > 
09 Backwards Down the Number Line > 
10 Chalk Dust Torture
11 encore break
12 The Lizards
13 Suzy Greenberg

;flac fingerprints generated by xACT 2.47 on 2019-06-29 03:10:22 +0000

ph2019-06-26.mk41v.sxr4+.1644.s1t01.flac:6b03513441ee7c46e616e002dee9e206
ph2019-06-26.mk41v.sxr4+.1644.s1t02.flac:0ee1c8c63ce41eb1c0708acdbe94bb23
ph2019-06-26.mk41v.sxr4+.1644.s1t03.flac:993f4ce0c66f94aad8a85d5915394808
ph2019-06-26.mk41v.sxr4+.1644.s1t04.flac:b24771ebb8668accad8669ffc5a67d39
ph2019-06-26.mk41v.sxr4+.1644.s1t05.flac:87c31f0767ab239ba57de792e9c40b14
ph2019-06-26.mk41v.sxr4+.1644.s1t06.flac:ae5ba04e63ae007d35e65b008ee2b866
ph2019-06-26.mk41v.sxr4+.1644.s1t07.flac:460d4a3145ed43fa3ef973b5641dde6f
ph2019-06-26.mk41v.sxr4+.1644.s1t08.flac:9aa47098250a2764a01afd357d42a6f5
ph2019-06-26.mk41v.sxr4+.1644.s1t09.flac:5c08f4f8f8c68dac22b1e4765aae8e2f
ph2019-06-26.mk41v.sxr4+.1644.s1t10.flac:cce072e9e1d90e62cc536607e7cbc9e0
ph2019-06-26.mk41v.sxr4+.1644.s2t01.flac:0d2acd1c4c5b032ee99b736516ac3385
ph2019-06-26.mk41v.sxr4+.1644.s2t02.flac:47a8bda81eba6ca760d513b0c5b5cecf
ph2019-06-26.mk41v.sxr4+.1644.s2t03.flac:f7977d62276ce952e6464a5374bc78ee
ph2019-06-26.mk41v.sxr4+.1644.s2t04.flac:e0c64be6de4a6d7d45f19489501cc0c9
ph2019-06-26.mk41v.sxr4+.1644.s2t05.flac:44b4beb5f434f5058bc1e5b3013aac77
ph2019-06-26.mk41v.sxr4+.1644.s2t06.flac:ffa753f07e67ceab33423f9704201975
ph2019-06-26.mk41v.sxr4+.1644.s2t07.flac:d1ad7eb864555f0ac8133bc3e5fe36ae
ph2019-06-26.mk41v.sxr4+.1644.s2t08.flac:eca6d629d4162b92ff947097022e12b9
ph2019-06-26.mk41v.sxr4+.1644.s2t09.flac:78dc421313ab6b074a470bd971c60fb2
ph2019-06-26.mk41v.sxr4+.1644.s2t10.flac:01324c9d903515c09b0b98119d0e6ec8
ph2019-06-26.mk41v.sxr4+.1644.s2t11.flac:68679c5d52b881b8d125a83abfe6ffa5
ph2019-06-26.mk41v.sxr4+.1644.s2t12.flac:996958bf8b82c41c9397fab1667ca687
ph2019-06-26.mk41v.sxr4+.1644.s2t13.flac:37730aa3b5952532a73582379ff7e904

    length     expanded size    cdr  WAVE problems  fmt   ratio  filename
     1:00.41       10680476 B   ---   --   -----    wav  1.0000  ph2019-06-26.mk41v.sxr4+.1644.s1t01.wav
     4:45.11       50299916 B   ---   --   -----    wav  1.0000  ph2019-06-26.mk41v.sxr4+.1644.s1t02.wav
     8:56.70       94715084 B   ---   --   -----    wav  1.0000  ph2019-06-26.mk41v.sxr4+.1644.s1t03.wav
     4:47.07       50643308 B   ---   --   -----    wav  1.0000  ph2019-06-26.mk41v.sxr4+.1644.s1t04.wav
     8:40.58       91864460 B   ---   --   -----    wav  1.0000  ph2019-06-26.mk41v.sxr4+.1644.s1t05.wav
    11:07.07      117675308 B   ---   --   -----    wav  1.0000  ph2019-06-26.mk41v.sxr4+.1644.s1t06.wav
     9:24.44       99593132 B   ---   --   -----    wav  1.0000  ph2019-06-26.mk41v.sxr4+.1644.s1t07.wav
    16:32.01      174991196 B   ---   --   -----    wav  1.0000  ph2019-06-26.mk41v.sxr4+.1644.s1t08.wav
     4:41.45       49674284 B   ---   --   -----    wav  1.0000  ph2019-06-26.mk41v.sxr4+.1644.s1t09.wav
     9:47.73      103718540 B   ---   --   -----    wav  1.0000  ph2019-06-26.mk41v.sxr4+.1644.s1t10.wav
     1:23.59       14780012 B   ---   --   -----    wav  1.0000  ph2019-06-26.mk41v.sxr4+.1644.s2t01.wav
     6:52.65       72829724 B   ---   --   -----    wav  1.0000  ph2019-06-26.mk41v.sxr4+.1644.s2t02.wav
     7:41.01       81322796 B   ---   --   -----    wav  1.0000  ph2019-06-26.mk41v.sxr4+.1644.s2t03.wav
    17:18.54      183230252 B   ---   --   -----    wav  1.0000  ph2019-06-26.mk41v.sxr4+.1644.s2t04.wav
    13:04.36      138382316 B   ---   --   -----    wav  1.0000  ph2019-06-26.mk41v.sxr4+.1644.s2t05.wav
     6:12.28       65686700 B   ---   --   -----    wav  1.0000  ph2019-06-26.mk41v.sxr4+.1644.s2t06.wav
     4:44.60       50238764 B   ---   --   -----    wav  1.0000  ph2019-06-26.mk41v.sxr4+.1644.s2t07.wav
     4:14.72       44974988 B   ---   --   -----    wav  1.0000  ph2019-06-26.mk41v.sxr4+.1644.s2t08.wav
     7:00.68       74247980 B   ---   --   -----    wav  1.0000  ph2019-06-26.mk41v.sxr4+.1644.s2t09.wav
     8:59.07       95096108 B   ---   --   -----    wav  1.0000  ph2019-06-26.mk41v.sxr4+.1644.s2t10.wav
     2:18.37       24430268 B   ---   --   -----    wav  1.0000  ph2019-06-26.mk41v.sxr4+.1644.s2t11.wav
    10:03.31      106442156 B   ---   --   -----    wav  1.0000  ph2019-06-26.mk41v.sxr4+.1644.s2t12.wav
     7:03.36       74701916 B   ---   --   -----    wav  1.0000  ph2019-06-26.mk41v.sxr4+.1644.s2t13.wav
   176:42.11     1870219684 B                            1.0000  (23 files)





More information about the bittorrent mailing list