[bittorrent] WSP 2001-07-06 Sandstone Amphitheatre - Bonner Springs, KS [AKG 461]

Automated Mailer noreply-bt.e at etree.org
Sat Jun 29 03:22:28 UTC 2019


Band:           Widespread Panic
Torrent Name:   WSP 2001-07-06 Sandstone Amphitheatre - Bonner Springs, KS [AKG 461]
Uploaded by:    mfalcon
DB Link:        
Details:        http://bt.etree.org/details.php?id=605988

Contact the seeder at http://db.etree.org/mfalcon

If the link to this show does not work, it was probably removed for
being non-trade-friendly.

Description / text file:
-------------------------
Widespread Panic
Friday
07/06/01
Sandstone Amphitheatre
Bonner Springs, KS

Source: AKG 460/ck61s -> Tascam DA-P1 -> Sony D8
Location: DIN | DFC row 28
Transfer: Sony R500 -> Tascam HD-P2 @ 16/48 -> HDD -> Amadeus Pro (tracking/fades/FLAC8)
DSP: 16/48 .flac's -> .wav -> WaveLab -> 16/44.1 .wav's -> .flac (6)
Charlie Cioferro's rig, patch by Mike Darby
Recorded and transferred by Mike Darby
DSP'd, compiled and seeded by Dustin Hassenstab

Disc 1
01. [01:00] Intro
02. [03:51] Give
03. [05:00] One Arm Steve ->
04. [07:42] Pleas ->
05. [05:05] Wondering
06. [03:33] Down
07. [07:30] Greta ->
08. [05:52] Christmas Katie ->
09. [07:18] Let It Rock

Disc 2
01. [10:01] Walkin' ->
02. [04:21] Surprise Valley
03. [12:21] Drums ->
04. [06:37] Jammish -> Surprise Valley
05. [06:05] Let's Get The Show On The Road
06. [05:54] North ->
07. [06:28] Travelin' Light

    length     expanded size   cdr  WAVE problems filename
     1:00.00       10584044    ---   --   ---xx   wsp2001-07-06.akg461.d1t01.flac
     3:51.00       40748444    ---   --   ---xx   wsp2001-07-06.akg461.d1t02.flac
     5:00.00       52920044    ---   --   ---xx   wsp2001-07-06.akg461.d1t03.flac
     7:42.00       81496844    ---   --   ---xx   wsp2001-07-06.akg461.d1t04.flac
     5:05.00       53802044    ---   --   ---xx   wsp2001-07-06.akg461.d1t05.flac
     3:33.00       37573244    ---   --   ---xx   wsp2001-07-06.akg461.d1t06.flac
     7:30.00       79380044    ---   --   ---xx   wsp2001-07-06.akg461.d1t07.flac
     5:52.00       62092844    ---   --   ---xx   wsp2001-07-06.akg461.d1t08.flac
     7:18.00       77263244    ---   --   ---xx   wsp2001-07-06.akg461.d1t09.flac
    10:01.71      106183436    ---   --   ---xx   wsp2001-07-06.akg461.d2t01.flac
     4:21.68       46200380    ---   --   ---xx   wsp2001-07-06.akg461.d2t02.flac
    12:21.11      130738316    ---   --   ---xx   wsp2001-07-06.akg461.d2t03.flac
     6:37.00       70030844    ---   --   ---xx   wsp2001-07-06.akg461.d2t04.flac
     6:05.00       64386044    ---   --   ---xx   wsp2001-07-06.akg461.d2t05.flac
     5:54.00       62445644    ---   --   ---xx   wsp2001-07-06.akg461.d2t06.flac
     6:28.01       68445596    ---   --   ---xx   wsp2001-07-06.akg461.d2t07.flac
    98:40.01     1044291056 B                     (totals for 16 files, 0.5816 overall compression ratio)

; flac fingerprint file generated by Trader's Little Helper
; generated on November 20, 2008, at 5:15 pm

wsp2001-07-06.akg461.d1t01.flac:15f785beaf851ba5d84610537254e0cd
wsp2001-07-06.akg461.d1t02.flac:5d7533444511e0db4b19e45c6d1006eb
wsp2001-07-06.akg461.d1t03.flac:e02afac77db004d636dad9888056d34f
wsp2001-07-06.akg461.d1t04.flac:0909fd28e066968b6d2f5e19446fdfc2
wsp2001-07-06.akg461.d1t05.flac:9b8aec7d8397d078a5a3fa84e662864c
wsp2001-07-06.akg461.d1t06.flac:78ce032e0d1b27b4e55499d528ac42e5
wsp2001-07-06.akg461.d1t07.flac:384dba3fd9fc4d83c2c88d18f9a14123
wsp2001-07-06.akg461.d1t08.flac:1b2f1401643d95783bebf7fa2ed8f354
wsp2001-07-06.akg461.d1t09.flac:3e10bef1df228fc1941f171b7378fb65
wsp2001-07-06.akg461.d2t01.flac:18d285a42a1addf8855193d2477eeaf1
wsp2001-07-06.akg461.d2t02.flac:e323aea2dee0255aacce3e438af6a3a1
wsp2001-07-06.akg461.d2t03.flac:70657711df6ac8723ea5a13c4a1e52f7
wsp2001-07-06.akg461.d2t04.flac:f6c4b3b8cde1df8f5861b06820d8981b
wsp2001-07-06.akg461.d2t05.flac:58cf7e9318c15f90c6b7ee4163975865
wsp2001-07-06.akg461.d2t06.flac:aae194f632bce17a60b86fb1533ca3a5
wsp2001-07-06.akg461.d2t07.flac:a4b98c61d61c5fa90bb896ef8114dd07



More information about the bittorrent mailing list