[bittorrent] WSP 2001-07-04 Harmony Park Music Garden - Geneva, MN [AKG 481]

Automated Mailer noreply-bt.e at etree.org
Fri Jun 28 02:16:49 UTC 2019


Band:           Widespread Panic
Torrent Name:   WSP 2001-07-04 Harmony Park Music Garden - Geneva, MN [AKG 481]
Uploaded by:    mfalcon
DB Link:        
Details:        http://bt.etree.org/details.php?id=605976

Contact the seeder at http://db.etree.org/mfalcon

If the link to this show does not work, it was probably removed for
being non-trade-friendly.

Description / text file:
-------------------------
Widespread Panic 
Harmony Park Music Garden 
Geneva, MN 
July 4, 2001

source:AKG 481(din)>PS-2>modsbm1>D8
location: set 1:fob,dfc,~40'    set 2: ts,dfc,~80'
conversion: M1>Nagra V >Nagra HD>Wavelab 5>CDWAV>FLAC
taped and converted by John Callery


Disk 1/set 1
01: Henry Parsons Died
02: Who Do You Belong To?
03: Jack
04: The Waker > 
05: C. Brown > 
06: Tie Your Shoes > 
07: Good Morning Little Schoolgirl > 
08: 1 x 1 > 
09: Conrad  

Disk 2/set 2
01: Happy > 
02: Dyin' Man
03: Airplane > 
04: Holden Oversoul > 
05: Better Off > 
06: One Kind Favor > 
07: Drums > 

Disk 3/set 2
01: Jam >
02: Four Cornered Room > 
03: Heathen > 
04: Four Cornered Room
05: This Part Of Town
06: Fishwater  
E:
07: Old Joe*
08: Red Beans  

*with loud Fireworks pops 
=================================================
flac Fingerprint
wsp2001-07-04d1t01.flac:47a50d160b8fad7d898b2b25e6ae9174
wsp2001-07-04d1t02.flac:952f45006dee54c4315060e0d750b6a9
wsp2001-07-04d1t03.flac:16dba867870cfcf19bc5af81a9e0cf62
wsp2001-07-04d1t04.flac:b61334ac6e4286161fb91ff818e1c06e
wsp2001-07-04d1t05.flac:a9c18ade0b19ca9560d25a338a898626
wsp2001-07-04d1t06.flac:7b85ca8909916fa6ed4f8d8f10c0dd61
wsp2001-07-04d1t07.flac:cc31bdfb4f47c4917c97fa247202d5a5
wsp2001-07-04d1t08.flac:798efa8021845af39dfc949d0464dd5c
wsp2001-07-04d1t09.flac:5ca8e05bf757c62614806d93968e2680
wsp2001-07-04d2t01.flac:9e83453a73f442615d0a146e62b23c26
wsp2001-07-04d2t02.flac:6200aeb76c6d8aef6efd56b9a2010eaf
wsp2001-07-04d2t03.flac:8ea3d833c392df8a8d87853537be7c24
wsp2001-07-04d2t04.flac:7720748c1567ecceb94a67bc172be7c9
wsp2001-07-04d2t05.flac:75785a70e559fea9ba1628ea140c72ea
wsp2001-07-04d2t06.flac:6bd49be113054cd67ebd381821bc7e9d
wsp2001-07-04d2t07.flac:71bcf277d61c3d96597b1f1128a209d5
wsp2001-07-04d3t01.flac:87bb041f2b697ece6ecce63a4cce7c1b
wsp2001-07-04d3t02.flac:461bbf4b7fc60d9ad4f62251d5e9573c
wsp2001-07-04d3t03.flac:f7b0228c02ff750b608d100fa50ed41e
wsp2001-07-04d3t04.flac:68f8b6b9e64e3d791ce944cc93992d1a
wsp2001-07-04d3t05.flac:38dd08b2622b6465c27a354c80bc4fb4
wsp2001-07-04d3t06.flac:e502c13d9a5ad95dcf753fa2a3c600d2
wsp2001-07-04d3t07.flac:959d53aae1d7efcf35bf34400f955cf9
wsp2001-07-04d3t08.flac:a5f6b056a0caa4ed666d26ce3eaf1e89

=================================================
SHNtool
   length     expanded size   cdr  WAVE problems filename
     7:35.43       80363180    ---   --   ---xx   wsp2001-07-04d1t01.flac
     6:07.10       64762364    ---   --   ---xx   wsp2001-07-04d1t02.flac
     7:28.64       79177772    ---   --   ---xx   wsp2001-07-04d1t03.flac
     6:25.64       68064572    ---   --   ---xx   wsp2001-07-04d1t04.flac
     6:36.19       69899132    ---   --   ---xx   wsp2001-07-04d1t05.flac
    10:32.52      111607148    ---   --   ---xx   wsp2001-07-04d1t06.flac
     6:42.22       70964588    ---   --   ---xx   wsp2001-07-04d1t07.flac
     5:39.45       59905484    ---   --   ---xx   wsp2001-07-04d1t08.flac
     8:39.29       91619852    ---   --   ---xx   wsp2001-07-04d1t09.flac
     9:10.30       97090604    ---   --   ---xx   wsp2001-07-04d2t01.flac
     5:18.59       56234012    ---   --   ---xx   wsp2001-07-04d2t02.flac
    13:21.63      141444620    ---   --   ---xx   wsp2001-07-04d2t03.flac
     9:56.28      105200300    ---   --   ---xx   wsp2001-07-04d2t04.flac
     5:49.21       61613036    ---   --   ---xx   wsp2001-07-04d2t05.flac
    16:15.33      172067660    ---   --   ---xx   wsp2001-07-04d2t06.flac
    14:29.03      153298700    ---   --   ---xx   wsp2001-07-04d2t07.flac
     6:17.19       66547532    ---   --   ---xx   wsp2001-07-04d3t01.flac
     4:37.15       48898124    ---   --   ---xx   wsp2001-07-04d3t02.flac
     5:55.11       62647916    ---   --   ---xx   wsp2001-07-04d3t03.flac
     3:07.70       33151484    ---   --   ---xx   wsp2001-07-04d3t04.flac
     5:18.13       56125820    ---   --   ---xx   wsp2001-07-04d3t05.flac
     9:07.44       96594332    ---   --   ---xx   wsp2001-07-04d3t06.flac
     3:55.23       41508140    ---   --   ---xx   wsp2001-07-04d3t07.flac
     4:55.38       52127420    ---   --   ---xx   wsp2001-07-04d3t08.flac
   183:22.68        1851.00 MB                    (totals for 24 files, 0.5236 overall compression ratio)





More information about the bittorrent mailing list