[bittorrent] WSP 2001-07-04 Harmony Park Music Garden - Geneva, MN [AKG 451]

Automated Mailer noreply-bt.e at etree.org
Fri Jun 28 02:14:27 UTC 2019


Band:           Widespread Panic
Torrent Name:   WSP 2001-07-04 Harmony Park Music Garden - Geneva, MN [AKG 451]
Uploaded by:    mfalcon
DB Link:        
Details:        http://bt.etree.org/details.php?id=605975

Contact the seeder at http://db.etree.org/mfalcon

If the link to this show does not work, it was probably removed for
being non-trade-friendly.

Description / text file:
-------------------------
Widespread Panic 
Monday
07/04/2001
Harmony Park Music Garden
Geneva, MN 

Source: AKG 451EB/ck1s -> Tascam DA-P1
Location: DIN | DFC | behind SBD | 9ft
Transfer: Sony R500 -> Tascam HD-P2 @ 16/48 -> HDD -> Amadeus Pro (tracking/fades/FLAC8)
DSP: 16/48 .flac's -> .wav -> WaveLab -> 16/44.1 .wav's -> .flac (6)
Recorded and transferred by Mike Darby
DSP'd, compiled and seeded by Dustin Hassenstab

Disc 1
Set 1:
01. [00:48] Crowd
02. [07:05] Henry Parsons Died
03. [05:56] Who Do You Belong To?
04. [07:40] Jack
05. [07:18] The Waker ->
06. [05:39] C. Brown ->
07. [10:36] Tie Your Shoes ->
08. [07:23] Good Morning Little Schoolgirl ->
09. [04:57] 1 x 1 ->
10. [08:46] Conrad

Disc 2
Set 2:
01. [00:43] Crowd
02. [08:11] Happy ->
03. [05:37] Dyin' Man
04. [12:41] Airplane ->
05. [07:49] Holden Oversoul ->
06. [02:48] Jam ->
07. [05:50] Better Off ->
08. [16:17] One Kind Favor ->
09. [15:54] Drums ->

Disc 3
01. [05:51] Jam -> 
02. [03:36] Four Cornered Room ->
03. [05:31] Heathen ->
04. [03:29] Four Cornered Room
05. [05:19] This Part Of Town
06. [09:53] Fishwater
Encore:
07. [03:56] Old Joe
08. [05:08] Red Beans


    length     expanded size   cdr  WAVE problems filename
     0:48.00        8467244    ---   --   ---xx   wsp2001-07-04.akg451.d1t01.flac
     7:05.00       74970044    ---   --   ---xx   wsp2001-07-04.akg451.d1t02.flac
     5:56.00       62798444    ---   --   ---xx   wsp2001-07-04.akg451.d1t03.flac
     7:40.00       81144044    ---   --   ---xx   wsp2001-07-04.akg451.d1t04.flac
     7:18.41       77359676    ---   --   ---xx   wsp2001-07-04.akg451.d1t05.flac
     5:39.34       59879612    ---   --   ---xx   wsp2001-07-04.akg451.d1t06.flac
    10:36.00      112190444    ---   --   ---xx   wsp2001-07-04.akg451.d1t07.flac
     7:23.00       78145244    ---   --   ---xx   wsp2001-07-04.akg451.d1t08.flac
     4:57.00       52390844    ---   --   ---xx   wsp2001-07-04.akg451.d1t09.flac
     8:46.00       92786444    ---   --   ---xx   wsp2001-07-04.akg451.d1t10.flac
     0:43.00        7585244    ---   --   ---xx   wsp2001-07-04.akg451.d2t01.flac
     8:11.00       86612444    ---   --   ---xx   wsp2001-07-04.akg451.d2t02.flac
     5:37.00       59446844    ---   --   ---xx   wsp2001-07-04.akg451.d2t03.flac
    12:41.00      134240444    ---   --   ---xx   wsp2001-07-04.akg451.d2t04.flac
     7:49.00       82731644    ---   --   ---xx   wsp2001-07-04.akg451.d2t05.flac
     2:48.00       29635244    ---   --   ---xx   wsp2001-07-04.akg451.d2t06.flac
     5:50.00       61740044    ---   --   ---xx   wsp2001-07-04.akg451.d2t07.flac
    16:17.00      172342844    ---   --   ---xx   wsp2001-07-04.akg451.d2t08.flac
    15:54.00      168285644    ---   --   ---xx   wsp2001-07-04.akg451.d2t09.flac
     5:51.00       61916444    ---   --   ---xx   wsp2001-07-04.akg451.d3t01.flac
     3:36.00       38102444    ---   --   ---xx   wsp2001-07-04.akg451.d3t02.flac
     5:31.00       58388444    ---   --   ---xx   wsp2001-07-04.akg451.d3t03.flac
     3:29.00       36867644    ---   --   ---xx   wsp2001-07-04.akg451.d3t04.flac
     5:19.00       56271644    ---   --   ---xx   wsp2001-07-04.akg451.d3t05.flac
     9:53.00      104605244    ---   --   ---xx   wsp2001-07-04.akg451.d3t06.flac
     3:56.00       41630444    ---   --   ---xx   wsp2001-07-04.akg451.d3t07.flac
     5:08.01       54333596    ---   --   ---xx   wsp2001-07-04.akg451.d3t08.flac
   184:42.01     1954868340 B                     (totals for 27 files, 0.5280 overall compression ratio)


; flac fingerprint file generated by Trader's Little Helper
; generated on November 19, 2008, at 9:32 pm

wsp2001-07-04.akg451.d1t01.flac:50319ca77d65052218d42a7789100cfe
wsp2001-07-04.akg451.d1t02.flac:6a6c807712af6480d9612417819e24b4
wsp2001-07-04.akg451.d1t03.flac:52a87c6c75eb9e81b18e89f7f059983f
wsp2001-07-04.akg451.d1t04.flac:e3251ac0883502b36506adf2db8817db
wsp2001-07-04.akg451.d1t05.flac:fab1c13ee5c3d11867217ffd0075c87d
wsp2001-07-04.akg451.d1t06.flac:45db6c917e977d18b6959ace05988074
wsp2001-07-04.akg451.d1t07.flac:0305c4b2715f22292cfbf4f2f268e68e
wsp2001-07-04.akg451.d1t08.flac:f4aac59ca5c52d8e103b788313eaecaa
wsp2001-07-04.akg451.d1t09.flac:ef787f1f6fc789d6faed2c87f6f864da
wsp2001-07-04.akg451.d1t10.flac:2c3bb2af027baedc6a7b6500a389204d
wsp2001-07-04.akg451.d2t01.flac:06385c813a430fc36e13621b187a700a
wsp2001-07-04.akg451.d2t02.flac:2411d30a71c512bde48c3b420b7a2da9
wsp2001-07-04.akg451.d2t03.flac:98c37dbf2212c53e2f76cf3aa6de3c85
wsp2001-07-04.akg451.d2t04.flac:0701d5f2270331c0fdb3824185853173
wsp2001-07-04.akg451.d2t05.flac:a0f400dc058f4e48f7e6d2acf352a189
wsp2001-07-04.akg451.d2t06.flac:210e9e3829317038bba4703403d5cf7c
wsp2001-07-04.akg451.d2t07.flac:c982ef9d14917b81f1d570e5859c1ad7
wsp2001-07-04.akg451.d2t08.flac:ace499b2385ec8fb9f7cb60c861f7767
wsp2001-07-04.akg451.d2t09.flac:7737cf565915c0f20891ed0ccbbba874
wsp2001-07-04.akg451.d3t01.flac:1c6a31b3e536914bf9f42a198ccf0bf5
wsp2001-07-04.akg451.d3t02.flac:6d6311d3f43b47ae6a2d7472daf56ec4
wsp2001-07-04.akg451.d3t03.flac:44c0c70effca3d507b00798b8e76ab3f
wsp2001-07-04.akg451.d3t04.flac:0d17d1a9994bb20d6f2a070be551ca77
wsp2001-07-04.akg451.d3t05.flac:e982e04d15521cc21cfede259cea827e
wsp2001-07-04.akg451.d3t06.flac:3a518e9bf32997799a8a159f22ca13cb
wsp2001-07-04.akg451.d3t07.flac:4d1e14caa13623ae19f8720d6059a6ce
wsp2001-07-04.akg451.d3t08.flac:8d63a88e563d5096305c8b1184e64c5b



More information about the bittorrent mailing list