[bittorrent] WSP 2001-07-04 Harmony Park Music Garden - Geneva, MN [B&K 4021]

Automated Mailer noreply-bt.e at etree.org
Fri Jun 28 01:27:46 UTC 2019


Band:           Widespread Panic
Torrent Name:   WSP 2001-07-04 Harmony Park Music Garden - Geneva, MN [B&K 4021]
Uploaded by:    mfalcon
DB Link:        
Details:        http://bt.etree.org/details.php?id=605972

Contact the seeder at http://db.etree.org/mfalcon

If the link to this show does not work, it was probably removed for
being non-trade-friendly.

Description / text file:
-------------------------
Widespread Panic
Monday
07/04/01
Harmony Park Music Garden
Geneva, MN

Source: B&K 4021->Lunatec V2->Sonic AD2K (SNN3 setting)->Tascam DA-P1
FOB / ORTF / Set 1: 50' on stand / Set 2: 30' hat
by Tom Kingston

Transfer: DAT Master (Sony DTC-A6)->Soundforge 4.5 (add fades)->CDWAV->Shn via MKW .97
by Bill Gardner, bgardner at telocity.com 

.shn's decoded to .wav -> flac frontend (ASB) -> .flac (6) by Hoss 09/03/07

Disc 1
Set 1:
01. [08:08] Henry Parsons Died
02. [06:05] Who Do You Belong To?
03. [07:28] Jack
04. [06:26] The Waker ->
05. [06:34] C. Brown ->
06. [10:33] Tie Your Shoes ->
07. [07:22] Good Morning Little Schoolgirl ->
08. [04:57] 1 x 1 ->
09. [09:00] Conrad

Disc 2
Set 2:
01. [09:24] Happy ->
02. [05:19] Dyin' Man
03. [13:31] Airplane ->
04. [09:45] Holden Oversoul ->
05. [05:50] Better Off ->
06. [16:15] One Kind Favor ->
07. [16:24] Drums ->

Disc 3
01. [08:58] Jam -> Four Cornered Room ->
02. [05:57] Heathen ->
03. [03:02] Four Cornered Room
04. [05:19] This Part Of Town
05. [09:28] Fishwater
Encore:
06. [03:51] Old Joe
07. [06:51] Red Beans

    length     expanded size   cdr  WAVE problems filename
     8:08.26       86144396    ---   --   ---xx   wsp2001-07-04.b+k4021.d1t01.flac
     6:05.65       64538924    ---   --   ---xx   wsp2001-07-04.b+k4021.d1t02.flac
     7:28.59       79166012    ---   --   ---xx   wsp2001-07-04.b+k4021.d1t03.flac
     6:26.55       68219804    ---   --   ---xx   wsp2001-07-04.b+k4021.d1t04.flac
     6:34.04       69511052    ---   --   ---xx   wsp2001-07-04.b+k4021.d1t05.flac
    10:33.45      111767084    ---   --   ---xx   wsp2001-07-04.b+k4021.d1t06.flac
     7:22.23       78022940    ---   --   ---xx   wsp2001-07-04.b+k4021.d1t07.flac
     4:57.52       52513148    ---   --   ---xx   wsp2001-07-04.b+k4021.d1t08.flac
     9:00.68       95415980    ---   --   ---xx   wsp2001-07-04.b+k4021.d1t09.flac
     9:24.19       99534332    ---   --   ---xx   wsp2001-07-04.b+k4021.d2t01.flac
     5:19.26       56332796    ---   --   ---xx   wsp2001-07-04.b+k4021.d2t02.flac
    13:31.54      143187452    ---   --   ---xx   wsp2001-07-04.b+k4021.d2t03.flac
     9:45.21      103243436    ---   --   ---xx   wsp2001-07-04.b+k4021.d2t04.flac
     5:50.43       61841180    ---   --   ---xx   wsp2001-07-04.b+k4021.d2t05.flac
    16:15.38      172079420    ---   --   ---xx   wsp2001-07-04.b+k4021.d2t06.flac
    16:24.37      173664668    ---   --   ---xx   wsp2001-07-04.b+k4021.d2t07.flac
     8:58.14       94936172    ---   --   ---xx   wsp2001-07-04.b+k4021.d3t01.flac
     5:57.68       63134780    ---   --   ---xx   wsp2001-07-04.b+k4021.d3t02.flac
     3:02.13       32135420    ---   --   ---xx   wsp2001-07-04.b+k4021.d3t03.flac
     5:19.26       56332796    ---   --   ---xx   wsp2001-07-04.b+k4021.d3t04.flac
     9:28.00      100195244    ---   --   ---xx   wsp2001-07-04.b+k4021.d3t05.flac
     3:51.35       40830764    ---   --   ---xx   wsp2001-07-04.b+k4021.d3t06.flac
     6:51.49       72615692    ---   --   ---xx   wsp2001-07-04.b+k4021.d3t07.flac
   186:38.15     1975363492 B                     (totals for 23 files, 0.5314 overall compression ratio)


; flac fingerprint file generated by Trader's Little Helper
; generated on September 3, 2007, at 10:43 pm

wsp2001-07-04.b+k4021.d1t01.flac:7017d26c2e559dfed8d6d8708963cae7
wsp2001-07-04.b+k4021.d1t02.flac:dbeeaaeb4b9036997cb881d71d3a2c50
wsp2001-07-04.b+k4021.d1t03.flac:93d90d814317981a9cb6f1f86f8db763
wsp2001-07-04.b+k4021.d1t04.flac:1bea4648f85b8a5e8ade3db8ce9c9ee5
wsp2001-07-04.b+k4021.d1t05.flac:20b7d901b8e842be5882fae9d519bfd1
wsp2001-07-04.b+k4021.d1t06.flac:09ad98bc6b249e6b7d30f7dfeb06dfc8
wsp2001-07-04.b+k4021.d1t07.flac:645194df3600e4a4f54dc6a0cb6d2159
wsp2001-07-04.b+k4021.d1t08.flac:c654573f7160736f8164c80f9a650b63
wsp2001-07-04.b+k4021.d1t09.flac:3ae22199d8ebe97cf544bc0c3e6246a8
wsp2001-07-04.b+k4021.d2t01.flac:64ffdc32063664a5522c94314c5e373c
wsp2001-07-04.b+k4021.d2t02.flac:c4c4ef0adf63e1e19dd6ef3fc496c00c
wsp2001-07-04.b+k4021.d2t03.flac:4ce841651f896aedcc54ef70b7bfba3c
wsp2001-07-04.b+k4021.d2t04.flac:c5c6c03e341ab87e24386eba8102be22
wsp2001-07-04.b+k4021.d2t05.flac:34fa7c41c20cc903d898cf372420057d
wsp2001-07-04.b+k4021.d2t06.flac:c44257ce4f9fc7bdf6183f237123e322
wsp2001-07-04.b+k4021.d2t07.flac:69646df44367d2d457d83928a29ece00
wsp2001-07-04.b+k4021.d3t01.flac:060ee39127405be77442a3c5b47fd87f
wsp2001-07-04.b+k4021.d3t02.flac:36411a406822e89dd38e31c337b9280a
wsp2001-07-04.b+k4021.d3t03.flac:414af96b646d3b8da4105cedf4937c08
wsp2001-07-04.b+k4021.d3t04.flac:534e49e572b77682027da71d3aef8ce4
wsp2001-07-04.b+k4021.d3t05.flac:5349947d703be0d1ac3342209d026991
wsp2001-07-04.b+k4021.d3t06.flac:d8ae877eb11f5a27b452d7d7461d3daf
wsp2001-07-04.b+k4021.d3t07.flac:68f55bcd0db49f794687b3b6c5c264a6




More information about the bittorrent mailing list