[bittorrent] Drive-By Truckers The Cabot Cinema Beverly, Massachusetts 6/25/2019 (Schoeps CCM4V'S FOB)

Automated Mailer noreply-bt.e at etree.org
Thu Jun 27 03:27:48 UTC 2019


Band:           Drive-By Truckers
Torrent Name:   Drive-By Truckers The Cabot Cinema Beverly, Massachusetts 6/25/2019 (Schoeps CCM4V'S FOB)
Uploaded by:    zmanatl
DB Link:        
Details:        http://bt.etree.org/details.php?id=605965

Contact the seeder at http://db.etree.org/zmanatl

If the link to this show does not work, it was probably removed for
being non-trade-friendly.

Description / text file:
-------------------------
Drive-By Truckers
The Cabot Cinema
Beverly, Massachusetts
6/25/2019 

Source: Schoeps CCM4V'S>Lunatec V2>Sound Devices 722 (24/44.1)
FOB/DFC/KFC/ZFC/AARP Center Section, Row P, Seat 103 6 1/2' High
DSP: Sound Devices 722>Sound Forge 10.0>CD Wave>flac(16)
ID3 Tagged In Foobar 2000
Recorded By: Z-Man
Seeded By: Z-Man 

Disc I 

01 Greeting And Announcements By Casey Soward
02 House PA Family Affair/Greeting
03 Self Destructive Zones >
04 After The Scene Dies >
05 Women Without Whiskey 
06 Why Henry Drinks
07 Sounds Better In The Song >
08 (Something's Got To) Give Pretty Soon
09 Slow Ride Argument
10 ?
11 Filthy And Fried >
12 Righteous Path
13 Zip City
14 ?

Disc II 

01 Surrender Under Protest
02 Darkened Flags On The Cusp Of Dawn
03 ? >
04 Rosemary With A Bible And A Gun
05 3 Dimes Down >
06 ?
07 Marry Me >
08 The Tough Sell
09 A Ghost To Most
10 Sink Hole
11 Ramon Casiano >
12 Ronnie And Neil 
13 Gravity's Gone >
14 Lookout Mountain

Patterson Hood - Guitar And Vocals
Mike Cooley - Guitar And Vocals
Jay Gonzalez - Keyboards, Guitar, And Vocals
Matt Patton - Bass
Brad Morgan - Drums 

drive2019-06-25d01t01.flac:009bb0fbf764202d98c881b2a2e17733
drive2019-06-25d01t02.flac:86521e16a5480ccf1901fba285349877
drive2019-06-25d01t03.flac:153f56c0c688db5913053cec528d3d1a
drive2019-06-25d01t04.flac:6fc40e7b91584dadecf1bbbe9646c5af
drive2019-06-25d01t05.flac:89074fc8aa185e6e9d36c494aa4aba38
drive2019-06-25d01t06.flac:966c06a3c7aafc7760dc0770359a9714
drive2019-06-25d01t07.flac:f86f94996f2bea415383d8c7b7947ffb
drive2019-06-25d01t08.flac:3326353b4a501928d54e605445be5fda
drive2019-06-25d01t09.flac:7d6024de1402123551765de2b4f2d519
drive2019-06-25d01t10.flac:263a9a1ec97199a2acd65528398a85d5
drive2019-06-25d01t11.flac:a36a69961ff55a4f7111725227ffe3bc
drive2019-06-25d01t12.flac:e71b6e97bd55fc5d4b01348cddda7f2c
drive2019-06-25d01t13.flac:75a988f9315238ec5906006d8ad6a439
drive2019-06-25d01t14.flac:55974647b66a53b54b4f37e6199802be
drive2019-06-25d02t01.flac:90e1f8cd58476107cc30a83d6f45550e
drive2019-06-25d02t02.flac:85200198ee1979cf6a2b33c244fd2108
drive2019-06-25d02t03.flac:3db57ff02b1a6ef2e17007357737f7a3
drive2019-06-25d02t04.flac:363a9c47960d8c333a4451a109f34b55
drive2019-06-25d02t05.flac:83f950f2ae8d9be65dac32957449d4ed
drive2019-06-25d02t06.flac:6f59dac7631574068518c41f57cc8aaa
drive2019-06-25d02t07.flac:23673752953d35dcc249cfddfbf606e0
drive2019-06-25d02t08.flac:b92d00db496de35469054dc45282812a
drive2019-06-25d02t09.flac:5a88f2fc06fee1dc212187a78a46c21c
drive2019-06-25d02t10.flac:a836362be3c67c517c9c8beadd8f65d9
drive2019-06-25d02t11.flac:200c59652d9da8ad7e805ccfe4732414
drive2019-06-25d02t12.flac:d2e7c093915ba3b47ed8fce8a2ffbf69
drive2019-06-25d02t13.flac:a9cbba6d5fced8c9ca6d979fdb72f3ae
drive2019-06-25d02t14.flac:d1b855358190cff2c0b24033a20875bd

length     expanded size    cdr  WAVE problems  fmt   ratio  filename
     1:57.66       20794076 B   ---   --   ---xx   flac  0.4071  drive2019-06-25d01t01.flac
     0:51.50        9114044 B   ---   --   ---xx   flac  0.5311  drive2019-06-25d01t02.flac
     3:53.41       41197676 B   ---   --   ---xx   flac  0.6441  drive2019-06-25d01t03.flac
     4:39.51       49335596 B   ---   --   ---xx   flac  0.6168  drive2019-06-25d01t04.flac
     4:29.35       47533964 B   ---   --   ---xx   flac  0.5795  drive2019-06-25d01t05.flac
     4:34.60       48474764 B   ---   --   ---xx   flac  0.5694  drive2019-06-25d01t06.flac
     5:18.60       56236364 B   ---   --   ---xx   flac  0.5058  drive2019-06-25d01t07.flac
     4:17.46       45443036 B   ---   --   ---xx   flac  0.5721  drive2019-06-25d01t08.flac
     4:14.60       44946764 B   ---   --   ---xx   flac  0.5828  drive2019-06-25d01t09.flac
     6:11.72       65613788 B   ---   --   ---xx   flac  0.5581  drive2019-06-25d01t10.flac
     3:29.29       36935852 B   ---   --   ---xx   flac  0.5885  drive2019-06-25d01t11.flac
     4:03.49       42980492 B   ---   --   ---xx   flac  0.6016  drive2019-06-25d01t12.flac
     5:15.50       55683644 B   ---   --   ---xx   flac  0.5744  drive2019-06-25d01t13.flac
     8:06.20       85777484 B   ---   --   ---xx   flac  0.5189  drive2019-06-25d01t14.flac
     3:49.39       40487372 B   ---   --   ---xx   flac  0.6151  drive2019-06-25d02t01.flac
     3:29.41       36964076 B   ---   --   ---xx   flac  0.5567  drive2019-06-25d02t02.flac
     4:47.70       50791484 B   ---   --   ---xx   flac  0.6149  drive2019-06-25d02t03.flac
     3:59.74       42333692 B   ---   --   ---xx   flac  0.4841  drive2019-06-25d02t04.flac
     2:58.58       31535660 B   ---   --   ---xx   flac  0.6182  drive2019-06-25d02t05.flac
     5:10.18       54726380 B   ---   --   ---xx   flac  0.6226  drive2019-06-25d02t06.flac
     5:34.59       59056412 B   ---   --   ---xx   flac  0.6348  drive2019-06-25d02t07.flac
     4:46.01       50452796 B   ---   --   ---xx   flac  0.5729  drive2019-06-25d02t08.flac
     4:57.06       52404956 B   ---   --   ---xx   flac  0.5919  drive2019-06-25d02t09.flac
     4:48.58       50939660 B   ---   --   ---xx   flac  0.5818  drive2019-06-25d02t10.flac
     3:54.19       41322332 B   ---   --   ---xx   flac  0.6221  drive2019-06-25d02t11.flac
     4:50.31       51228956 B   ---   --   ---xx   flac  0.6241  drive2019-06-25d02t12.flac
     3:29.30       36938204 B   ---   --   ---xx   flac  0.6160  drive2019-06-25d02t13.flac
     5:58.28       63217100 B   ---   --   ---xx   flac  0.5941  drive2019-06-25d02t14.flac
   124:00.21     1312466624 B                            0.5810  (28 files)





More information about the bittorrent mailing list