[bittorrent] Brian Cogger And Friends Chianti Tuscan Restaurant And Jazz Lounge Beverly, Massachusetts 6/23/2019 (Schoeps CCM4V'S FOB)

Automated Mailer noreply-bt.e at etree.org
Mon Jun 24 14:57:46 UTC 2019


Band:           Other
Torrent Name:   Brian Cogger And Friends Chianti Tuscan Restaurant And Jazz Lounge Beverly, Massachusetts 6/23/2019 (Schoeps CCM4V'S FOB)
Uploaded by:    zmanatl
DB Link:        
Details:        http://bt.etree.org/details.php?id=605941

Contact the seeder at http://db.etree.org/zmanatl

If the link to this show does not work, it was probably removed for
being non-trade-friendly.

Description / text file:
-------------------------
Brian Cogger And Friends
Chianti Tuscan Restaurant And Jazz Club
Beverly, Massachusetts
6/23/2019

Source: Schoeps CCM4V's>Sound Devices 722 (24/44.1)
FOB/DFC/KFC/ZFC/AARP 10' From Stage, 6 1/2' High 
DSP: Sound Devices 722>Sound Forge 10.0>CD Wave>flac(16)
ID3 Tagged In Foobar 2000
Recorded By: Z-Man
Seeded By: Z-Man 

Disc I 

01 ?
02 On Green Gotham Street
03 Sonny
04 On The Sunny Side Of The Street
05 ?
06 *Sugar
07 *?
08 Band Introductions
09 *Night Life

* With Kevin Martin On Trumpet

Brian Cogger - Trumpet And Vocals
Gabe - Baritone Saxophone
John Hiltas - Drums
Nico Malanowski - Guitar 
Tiger - Bass 

brian2019-06-23d01t01.flac:30c68f43be546bf311eca4caeb18b194
brian2019-06-23d01t02.flac:d79676b95124cbf0c98a55d6b5cd25bc
brian2019-06-23d01t03.flac:357c796ca3f4a9420761c8b6a5c410ab
brian2019-06-23d01t04.flac:e2aea9a324591a12d825acb023ea1d12
brian2019-06-23d01t05.flac:c2a6d669d795563b6f05baa37566c825
brian2019-06-23d01t06.flac:0c53ec3fceee02c57d6fb06fce73ed72
brian2019-06-23d01t07.flac:0e9945d573451485ac48334d6791caaa
brian2019-06-23d01t08.flac:9e854ba1f9ef7e557f3f2c1fba1acf32
brian2019-06-23d01t09.flac:5b6d1729a822730c6251dfb9c30c6ef0

 length     expanded size    cdr  WAVE problems  fmt   ratio  filename
     2:55.22       30921788 B   ---   --   ---xx   flac  0.5555  brian2019-06-23d01t01.flac
     8:52.22       93896588 B   ---   --   ---xx   flac  0.5617  brian2019-06-23d01t02.flac
    10:10.54      107731052 B   ---   --   ---xx   flac  0.4981  brian2019-06-23d01t03.flac
     9:57.01      105313196 B   ---   --   ---xx   flac  0.5014  brian2019-06-23d01t04.flac
     8:41.49       92019692 B   ---   --   ---xx   flac  0.6090  brian2019-06-23d01t05.flac
     9:14.48       97838540 B   ---   --   ---xx   flac  0.4852  brian2019-06-23d01t06.flac
     9:29.60      100512764 B   ---   --   ---xx   flac  0.5825  brian2019-06-23d01t07.flac
     1:40.27       17703548 B   ---   --   ---xx   flac  0.3560  brian2019-06-23d01t08.flac
     7:58.40       84413324 B   ---   --   ---xx   flac  0.4683  brian2019-06-23d01t09.flac
    69:00.23      730350492 B                            0.5261  (9 files)




More information about the bittorrent mailing list