[bittorrent] JMAD Gillette Stadium Foxborough, , Massachusetts 6/22/2019 (Schoeps CCM4V'S FOB)

Automated Mailer noreply-bt.e at etree.org
Sun Jun 23 23:42:02 UTC 2019


Band:           Dead & Company
Torrent Name:   JMAD Gillette Stadium Foxborough,, Massachusetts 6/22/2019 (Schoeps CCM4V'S FOB)
Uploaded by:    zmanatl
DB Link:        
Details:        http://bt.etree.org/details.php?id=605930

Contact the seeder at http://db.etree.org/zmanatl

If the link to this show does not work, it was probably removed for
being non-trade-friendly.

Description / text file:
-------------------------
Dead & Company
Gillette Stadium
Foxborough, Massachusetts
6/22/2019

Source: Schoeps CCM4V's>Sound Devices 722 (24/44.1)
FOB/DFC/KFC/ZFC/AARP 55' From Stage, 6' High (1st Set) 90' From Stage, 6' High (2nd Set) 
DSP: Sound Devices 722>Sound Forge 10.0>CD Wave>flac(16)
ID3 Tagged In Foobar 2000
Recorded By: Z-Man
Seeded By: Z-Man 

Disc I 1st Set

01 Eyes Of The World 
02 Deal
03 Black-Throated Wind
04 *Big Boss Man Aborted
05 Easy Wind >
06 The Loser 
07 Big Railroad Blues >
08 *Bird Song
09 #Box Of Rain Part I
10 Box Of Rain Part II

Disc II 2nd Set

01 Help On The Way >
02 Slipknot! >
03 Franklin's Tower >
04 He's Gone >
05 Dark Star >

Disc II 2nd Set Con't

01 Drum Solo >
02 Space >
03 Stella Blue >
04 Not Fade Away >
05 Goin' Down The Road Feelin' Bad >
06 Not Fade Away
Encore:
07 The Weight

* They Started the Song And Stopped Very Abruptly. 
# My First Time Seeing This Encarnation Attempting This Song. Mayer Struggled And Stopped The Band. 
Then They Restarted It.

Bob Weir - Guitar And Vocals
Bill Kreutzmann - Drums
Mickey Hart - Drums
John Mayer - Guitar And Vocals
Oteil Burbridge - Bass And Vocals
Jeff Chimenti - Keyboards And Vocals

dead2019-06-22d01t01.flac:7af276961dfadb21ecbc704343857bf7
dead2019-06-22d01t02.flac:d4df4a68fa32099157f887b4d44ebe5e
dead2019-06-22d01t03.flac:d2435c9b06d50fbfab934c1ea072452a
dead2019-06-22d01t04.flac:f06e1dcce5b13c69fccc6a55fc014226
dead2019-06-22d01t05.flac:f3a49edc8035f0dcd9481e7f1acb44f2
dead2019-06-22d01t06.flac:59a6582326ac1a9cd9c561e93703281b
dead2019-06-22d01t07.flac:5053578cc870b2e7f6f005e03679810e
dead2019-06-22d01t08.flac:67386f7b8ffae33f60ee5330dfd81e4c
dead2019-06-22d01t09.flac:28c7cd345612d8cec2bc1de0bb641ed1
dead2019-06-22d01t10.flac:e6fa6bea94bc6c05415b5df5b6e50ffe
dead2019-06-22d02t01.flac:dc917e931ce587cb2f2259cba0e4fbf7
dead2019-06-22d02t02.flac:eca627a0f9bfc735f4b8aff29a66379a
dead2019-06-22d02t03.flac:99e1aa720784683ee9491df9de9e1efc
dead2019-06-22d02t04.flac:6f101aa8f0b279df04caf26a54db4216
dead2019-06-22d02t05.flac:33299f72611e8413de01b589ece3c61b
dead2019-06-22d03t01.flac:a903b4f52fa77d7c113082cae165d8bc
dead2019-06-22d03t02.flac:8df288bf7593c82abeb93cf9815953bf
dead2019-06-22d03t03.flac:c99f4bb67ee3922cd8701764fad8870f
dead2019-06-22d03t04.flac:dae9f9e25f98ee02261c0497ca3ed24b
dead2019-06-22d03t05.flac:2b11f5023909edd64afab88b971b45c5
dead2019-06-22d03t06.flac:989799da58aae772fab9d55c81dff18c
dead2019-06-22d03t07.flac:cb4ca10c2ba52edb45d4dd9443864f1d

 length     expanded size    cdr  WAVE problems  fmt   ratio  filename
    15:38.39      165554972 B   ---   --   ---xx   flac  0.4084  dead2019-06-22d01t01.flac
    10:10.03      107611100 B   ---   --   ---xx   flac  0.4533  dead2019-06-22d01t02.flac
     8:58.21       94952636 B   ---   --   ---xx   flac  0.3907  dead2019-06-22d01t03.flac
     0:23.48        4170140 B   ---   --   ---xx   flac  0.3365  dead2019-06-22d01t04.flac
     3:48.30       40289804 B   ---   --   ---xx   flac  0.4312  dead2019-06-22d01t05.flac
     9:23.21       99362636 B   ---   --   ---xx   flac  0.3785  dead2019-06-22d01t06.flac
     4:28.02       47279948 B   ---   --   ---xx   flac  0.4403  dead2019-06-22d01t07.flac
    14:50.31      157068956 B   ---   --   ---xx   flac  0.3915  dead2019-06-22d01t08.flac
     1:42.70       18157484 B   ---   --   ---xx   flac  0.4273  dead2019-06-22d01t09.flac
     7:07.32       75398108 B   ---   --   ---xx   flac  0.4354  dead2019-06-22d01t10.flac
     5:26.32       57581708 B   ---   --   ---xx   flac  0.4285  dead2019-06-22d02t01.flac
     8:11.03       86619500 B   ---   --   ---xx   flac  0.4343  dead2019-06-22d02t02.flac
    11:24.39      120749372 B   ---   --   ---xx   flac  0.4464  dead2019-06-22d02t03.flac
    12:52.28      136246700 B   ---   --   ---xx   flac  0.4146  dead2019-06-22d02t04.flac
    18:26.63      195246620 B   ---   --   ---xx   flac  0.4093  dead2019-06-22d02t05.flac
     7:08.26       75560396 B   ---   --   ---xx   flac  0.3748  dead2019-06-22d03t01.flac
     9:57.37      105397868 B   ---   --   ---xx   flac  0.3043  dead2019-06-22d03t02.flac
     9:37.22      101834588 B   ---   --   ---xx   flac  0.3423  dead2019-06-22d03t03.flac
     5:55.41       62718476 B   ---   --   ---xx   flac  0.4319  dead2019-06-22d03t04.flac
     7:35.07       80278508 B   ---   --   ---xx   flac  0.4146  dead2019-06-22d03t05.flac
     5:01.35       53178764 B   ---   --   ---xx   flac  0.4179  dead2019-06-22d03t06.flac
     9:46.42      103469228 B   ---   --   ---xx   flac  0.4045  dead2019-06-22d03t07.flac
   187:53.72     1988727512 B                            0.4048  (22 files)






More information about the bittorrent mailing list