[bittorrent] PHISH - Aug. 16, 1998 - Lemonwheel - Limestone, ME ***NEW SOURCE***

Automated Mailer noreply-bt.e at etree.org
Sun Jun 16 17:07:30 UTC 2019


Band:           Phish
Torrent Name:   PHISH - Aug. 16, 1998 - Lemonwheel - Limestone, ME   ***NEW SOURCE***
Uploaded by:    TWATTS
DB Link:        
Details:        http://bt.etree.org/details.php?id=605850

Contact the seeder at http://db.etree.org/TWATTS

If the link to this show does not work, it was probably removed for
being non-trade-friendly.

Description / text file:
-------------------------
Phish
08/16/98
Loring Air Force Base
Limestone, ME
Lemonwheel Day 2

Set 1
s1t01 - Ginseng Sullivan
s1t02 - Bathtub Gin ->
s1t03 - Rift
s1t04 - Punch You In The Eye
s1t05 - Lawn Boy
s1t06 - Ya Mar >
s1t07 - AC/DC Bag >
s1t08 - Frankie Says
s1t09 - Birds of a Feather
s1t10 - Guyute
s1t11 - Possum

Set 2
s2t01 - Down With Disease >
s2t02 - Piper
s2t03 - Ghost >
s2t04 - Fluffhead
s2t05 - When the Circus Comes >
s2t06 - Wading in a Velvet Sea
s2t07 - Hold Your Head Up >
s2t08 - Sexual Healing >
s2t09 - Hold Your Head Up
s2t10 - Run Like an Antelope

Set 3
s3t01 - Sabotage ->
s3t02 - Also Sprach Zarathustra >
s3t03 - Wilson >
s3t04 - The Mango Song >
s3t05 - Character Zero >
s3t06 - Bittersweet Motel
s3t07 - While My Guitar Gently Weeps

Encore
s3t08 - Harry Hood ->
s3t09 - Baby Elephant Walk

FM > DAT > ? > CDR > EAC > Sound Studio 4.8.14 >
X Audio Compression Toolkit 2.47 > flac16 (tagged)
This is not the same FM source as shn id 34813
Special thanks to spacebirbmatingcall

    length     expanded size    cdr  WAVE problems  fmt   ratio  filename
     3:43.38       39426620 B   ---   --   -----    wav  1.0000  ph1998-08-16s1t01.fm.sbmc.wav
    13:50.27      146475548 B   ---   --   -----    wav  1.0000  ph1998-08-16s1t02.fm.sbmc.wav
     5:59.10       63351164 B   ---   --   -----    wav  1.0000  ph1998-08-16s1t03.fm.sbmc.wav
     9:06.09       96335612 B   ---   --   -----    wav  1.0000  ph1998-08-16s1t04.fm.sbmc.wav
     3:18.27       34990748 B   ---   --   -----    wav  1.0000  ph1998-08-16s1t05.fm.sbmc.wav
    10:38.67      112700828 B   ---   --   -----    wav  1.0000  ph1998-08-16s1t06.fm.sbmc.wav
     8:42.19       92125532 B   ---   --   -----    wav  1.0000  ph1998-08-16s1t07.fm.sbmc.wav
     6:50.61       72467516 B   ---   --   -----    wav  1.0000  ph1998-08-16s1t08.fm.sbmc.wav
     8:59.08       95098460 B   ---   --   -----    wav  1.0000  ph1998-08-16s1t09.fm.sbmc.wav
    10:33.25      111720044 B   ---   --   -----    wav  1.0000  ph1998-08-16s1t10.fm.sbmc.wav
    15:30.58      164188460 B   ---   --   -----    wav  1.0000  ph1998-08-16s1t11.fm.sbmc.wav
    19:20.52      204746348 B   ---   --   -----    wav  1.0000  ph1998-08-16s2t01.fm.sbmc.wav
    10:19.42      109290428 B   ---   --   -----    wav  1.0000  ph1998-08-16s2t02.fm.sbmc.wav
    18:14.46      193089836 B   ---   --   -----    wav  1.0000  ph1998-08-16s2t03.fm.sbmc.wav
    15:44.08      166540460 B   ---   --   -----    wav  1.0000  ph1998-08-16s2t04.fm.sbmc.wav
     5:39.66       59954876 B   ---   --   -----    wav  1.0000  ph1998-08-16s2t05.fm.sbmc.wav
     7:56.31       84039356 B   ---   --   -----    wav  1.0000  ph1998-08-16s2t06.fm.sbmc.wav
     3:42.30       39231404 B   ---   --   -----    wav  1.0000  ph1998-08-16s2t07.fm.sbmc.wav
     6:11.14       65477372 B   ---   --   -----    wav  1.0000  ph1998-08-16s2t08.fm.sbmc.wav
     2:11.00       23108444 B   ---   --   -----    wav  1.0000  ph1998-08-16s2t09.fm.sbmc.wav
    12:45.28      135011900 B   ---   --   -----    wav  1.0000  ph1998-08-16s2t10.fm.sbmc.wav
     4:38.32       49114508 B   ---   --   -----    wav  1.0000  ph1998-08-16s3t01.fm.sbmc.wav
    17:01.34      180184412 B   ---   --   -----    wav  1.0000  ph1998-08-16s3t02.fm.sbmc.wav
     7:56.37       84053468 B   ---   --   -----    wav  1.0000  ph1998-08-16s3t03.fm.sbmc.wav
     7:24.30       78392204 B   ---   --   -----    wav  1.0000  ph1998-08-16s3t04.fm.sbmc.wav
     8:26.57       89392508 B   ---   --   -----    wav  1.0000  ph1998-08-16s3t05.fm.sbmc.wav
     3:58.31       42056156 B   ---   --   -----    wav  1.0000  ph1998-08-16s3t06.fm.sbmc.wav
    10:26.02      110431148 B   ---   --   -----    wav  1.0000  ph1998-08-16s3t07.fm.sbmc.wav
    21:19.04      225625052 B   ---   --   -----    wav  1.0000  ph1998-08-16s3t08.fm.sbmc.wav
     5:36.43       59371580 B   ---   --   -----    wav  1.0000  ph1998-08-16s3t09.fm.sbmc.wav
   286:05.36     3027991992 B                            1.0000  (30 files)

bbfc809242b71dd32bcc476abfaedb93 *ph1998-08-16s1t01.fm.sbmc.flac
6fd0a991a360f36b21ff8768d2eef953 *ph1998-08-16s1t02.fm.sbmc.flac
ce456b4b5d1eb2605a87ec9df08a8be6 *ph1998-08-16s1t03.fm.sbmc.flac
f9e1702a944e53e6bc78c50160e7b3b3 *ph1998-08-16s1t04.fm.sbmc.flac
956d1a769c07dafd784081c7a58f34e8 *ph1998-08-16s1t05.fm.sbmc.flac
da618c8ddfc6d41e796786fe0ae64e2a *ph1998-08-16s1t06.fm.sbmc.flac
04bd2c518627e736e67c9db7eed97c20 *ph1998-08-16s1t07.fm.sbmc.flac
c4423b9efa739bfdb12cd95f5808f65e *ph1998-08-16s1t08.fm.sbmc.flac
8347d4ebf9dcb7a1a2a728052ba94128 *ph1998-08-16s1t09.fm.sbmc.flac
1a59a54f44455aaf7a9ab74feb7848d0 *ph1998-08-16s1t10.fm.sbmc.flac
05d6ba0c69c09b654b3fbae86240ad3f *ph1998-08-16s1t11.fm.sbmc.flac
ad806c0cce3fef6c3df8e9a7d9c63e73 *ph1998-08-16s2t01.fm.sbmc.flac
ad766ba8fe17bd967ca66ac7d29a43df *ph1998-08-16s2t02.fm.sbmc.flac
d50f8422abd828ea7cc7130d3705d97c *ph1998-08-16s2t03.fm.sbmc.flac
9b524eed894c422ebef57135d7548b68 *ph1998-08-16s2t04.fm.sbmc.flac
d8ce5690c5bf5dada4ca5bdeb94eba52 *ph1998-08-16s2t05.fm.sbmc.flac
e56476d708c74e978479ec25df3eb6b3 *ph1998-08-16s2t06.fm.sbmc.flac
24f6dff43bb791972035aeb444173168 *ph1998-08-16s2t07.fm.sbmc.flac
c04b2e6d0315a10a71d1ee42a822dcbc *ph1998-08-16s2t08.fm.sbmc.flac
3d5f0f08bbed8619450965f095c0e1a3 *ph1998-08-16s2t09.fm.sbmc.flac
9bdc2419f7f1e9343ad4b0619bbfb46d *ph1998-08-16s2t10.fm.sbmc.flac
ad42d455a0da2b5a5d9bb771a3f58b62 *ph1998-08-16s3t01.fm.sbmc.flac
3991425b92c380d578aac7e38db37d4a *ph1998-08-16s3t02.fm.sbmc.flac
66530cabfbcdf7a6c49a70d600e3fc63 *ph1998-08-16s3t03.fm.sbmc.flac
bc8fc6b915766f2cc8a578c8015c8a26 *ph1998-08-16s3t04.fm.sbmc.flac
8f5d9c0368adc526b07b4f48409c1192 *ph1998-08-16s3t05.fm.sbmc.flac
5ec5c9ef9759e10af06bef63ab3a9223 *ph1998-08-16s3t06.fm.sbmc.flac
b3a930813e72506316d257b923af2d57 *ph1998-08-16s3t07.fm.sbmc.flac
a8582b311fbe027832cc3d22f75b60ed *ph1998-08-16s3t08.fm.sbmc.flac
edbca911625526844d6d846c412caa45 *ph1998-08-16s3t09.fm.sbmc.flac

ph1998-08-16s1t01.fm.sbmc.flac:1b36b15cd527be9e8d974136176c660e
ph1998-08-16s1t02.fm.sbmc.flac:09c7a7e9cf699e24dfd2c8c80ac9bb29
ph1998-08-16s1t03.fm.sbmc.flac:49adb702ac00863afbb6a002f661a61d
ph1998-08-16s1t04.fm.sbmc.flac:ab1d81a79c241677f38710d950589f7b
ph1998-08-16s1t05.fm.sbmc.flac:92eb2a416e299276c68d11645ad104d7
ph1998-08-16s1t06.fm.sbmc.flac:4182eee53bc7ef2623f597ab2fa64cc7
ph1998-08-16s1t07.fm.sbmc.flac:45f2b10bc40be5874e4a20b1ad49ecd1
ph1998-08-16s1t08.fm.sbmc.flac:f5a7d2207973bbd2c7756d47a5c85f31
ph1998-08-16s1t09.fm.sbmc.flac:00efe37ac4e87050274b588ed17c9470
ph1998-08-16s1t10.fm.sbmc.flac:4c66c997f753c95e9d3720d4bcb5daf5
ph1998-08-16s1t11.fm.sbmc.flac:ac9e8d9c26ab47be99a171cd212c391a
ph1998-08-16s2t01.fm.sbmc.flac:2b05ccc24c532593fc1c75df16e0485c
ph1998-08-16s2t02.fm.sbmc.flac:4eb48ca5e46d06bdff2d3b13c808c0de
ph1998-08-16s2t03.fm.sbmc.flac:aa450429bfa5c7566211a1c9037adde4
ph1998-08-16s2t04.fm.sbmc.flac:8a8e309704af1439b86af992308bbeeb
ph1998-08-16s2t05.fm.sbmc.flac:2724e1de7189653e39e5e0ac5c3d0489
ph1998-08-16s2t06.fm.sbmc.flac:7c67bd1a017e6085f41c672b30b9b501
ph1998-08-16s2t07.fm.sbmc.flac:4abddf9acdb538a986b7889d1659327a
ph1998-08-16s2t08.fm.sbmc.flac:bf82796cf0efdf5b036efa5df7fb2995
ph1998-08-16s2t09.fm.sbmc.flac:5e9d6c14d28a6a673fc58d121718ed48
ph1998-08-16s2t10.fm.sbmc.flac:565e1e13d12fecefa73d91c94d57f2a1
ph1998-08-16s3t01.fm.sbmc.flac:c4b1c629d3af3074250fc1da5afba6aa
ph1998-08-16s3t02.fm.sbmc.flac:3dfaf4fd647d6b0dacf8de52ea86e09d
ph1998-08-16s3t03.fm.sbmc.flac:53c60d36f879e39245d588c6a4f971a3
ph1998-08-16s3t04.fm.sbmc.flac:93a983318de42760571572e26fcc1dbe
ph1998-08-16s3t05.fm.sbmc.flac:9e01b564ae35e49e6624dc18e034e009
ph1998-08-16s3t06.fm.sbmc.flac:919032113514586c36a4a60ac3316a24
ph1998-08-16s3t07.fm.sbmc.flac:2f5d0d2cfda0bed4dfb14af9b22a192b
ph1998-08-16s3t08.fm.sbmc.flac:2cbcd0e78b57824f9f30f3519943cc74
ph1998-08-16s3t09.fm.sbmc.flac:7e3e6594c77394ccb0d79109fb07c8e0

Support the bands and venues that support you!
2019-04-12 Rohrs



More information about the bittorrent mailing list