[bittorrent] The Headlands Chianti Tuscan Restaurant And Jazz Lounge Beverly, Massachusetts 5/22/2019 (Schoeps MK4V'S FOB)

Automated Mailer noreply-bt.e at etree.org
Sat Jun 15 04:11:39 UTC 2019


Band:           Other
Torrent Name:   The Headlands Chianti Tuscan Restaurant And Jazz Lounge Beverly, Massachusetts 5/22/2019 (Schoeps MK4V'S FOB)
Uploaded by:    zmanatl
DB Link:        
Details:        http://bt.etree.org/details.php?id=605830

Contact the seeder at http://db.etree.org/zmanatl

If the link to this show does not work, it was probably removed for
being non-trade-friendly.

Description / text file:
-------------------------
Headlands
Chianti Italian Restaurant And Jazz Lounge
Beverly, Massachusetts
5/22/2019 

Source: Schoeps MK4V'S>CMC6 Bodies>Lunatec V2>Sound Devices 722 (24/44.1)
FOB/DFC/KFC/ZFC/AARP 10' From Stage, 6 1/2' High
DSP: Sound Devices 722>Sound Forge 10.0>CD Wave>flac(16)
ID3 Tagged In Foobar 2000
Recorded By: Z-Man
Seeded By: Z-Man 

Disc I 

01 Seven Bridges Road
02 Save It For A Rainy Day 
03 You Don't Have To Cry
04 *You're Runnin' Wild
05 *Deep River
06 *Angel From Montgomery
07 *#I'm Drunk On Bluebird Wine 
08 *#Big River
09 *#Crazy Love
10 It Hurts Me
11 *#Midnight Rider >
12 *#Fire On The Mountain >
13 *#Midnight Hour

* With John Stone On Bass
# With Larry Ponziono On Drums

John Rockwell - Guitar And Vocals
Cathy ? - Vocals
? - Guitar And Vocals

headlands2019-05-22d01t01.flac:9c92403bc7aeb9724bd557d22c2510be
headlands2019-05-22d01t02.flac:54b5f5a4ec3839bdce12709a664f64e0
headlands2019-05-22d01t03.flac:9ed9286ac53875e65b1fd60103473508
headlands2019-05-22d01t04.flac:def450bb80fad31a2e8d8950e841097e
headlands2019-05-22d01t05.flac:845fe88e0e854d40de294c2567c4d250
headlands2019-05-22d01t06.flac:a92fba8221e95d286e9a48f5e5cdec2b
headlands2019-05-22d01t07.flac:eb7991fbdcc4f04733980cac00d2e122
headlands2019-05-22d01t08.flac:dc582b923bf164a48232af128911d2b1
headlands2019-05-22d01t09.flac:b1d109d160544f042c62fbc168c9bb2a
headlands2019-05-22d01t10.flac:bbfd83146a583dcbe69f107d00f3fbbf
headlands2019-05-22d01t11.flac:76274741702f1ae2b224697f929b05ac
headlands2019-05-22d01t12.flac:015ed0aacfa19b62f2fc471b7c54ad77
headlands2019-05-22d01t13.flac:67f639d7e716ac2e69be9eb4ea9794ba

length     expanded size    cdr  WAVE problems  fmt   ratio  filename
     5:38.60       59764364 B   ---   --   ---xx   flac  0.3199  headlands2019-05-22d01t01.flac
     4:35.19       48554732 B   ---   --   ---xx   flac  0.3473  headlands2019-05-22d01t02.flac
     3:45.45       39795884 B   ---   --   ---xx   flac  0.3341  headlands2019-05-22d01t03.flac
     4:26.11       46948316 B   ---   --   ---xx   flac  0.3368  headlands2019-05-22d01t04.flac
     3:11.15       33727724 B   ---   --   ---xx   flac  0.3809  headlands2019-05-22d01t05.flac
     4:30.50       47745644 B   ---   --   ---xx   flac  0.3459  headlands2019-05-22d01t06.flac
     4:54.65       52014524 B   ---   --   ---xx   flac  0.4475  headlands2019-05-22d01t07.flac
     3:39.45       38737484 B   ---   --   ---xx   flac  0.4817  headlands2019-05-22d01t08.flac
     5:46.17       61074428 B   ---   --   ---xx   flac  0.4530  headlands2019-05-22d01t09.flac
     4:52.63       51657020 B   ---   --   ---xx   flac  0.3335  headlands2019-05-22d01t10.flac
     1:44.68       18505580 B   ---   --   ---xx   flac  0.4712  headlands2019-05-22d01t11.flac
     1:33.21       16454636 B   ---   --   ---xx   flac  0.4809  headlands2019-05-22d01t12.flac
     2:02.50       21638444 B   ---   --   ---xx   flac  0.4638  headlands2019-05-22d01t13.flac
    50:42.04      536618780 B                            0.3875  (13 files)




More information about the bittorrent mailing list