[bittorrent] Sam Moss And The Non-Cowboys The Cantab Lounge Cambridge, Massachusetts 5/21/2019 (Schoeps MK4V'S FOB)

Automated Mailer noreply-bt.e at etree.org
Sat Jun 15 03:37:57 UTC 2019


Band:           Other
Torrent Name:   Sam Moss And The Non-Cowboys The Cantab Lounge Cambridge, Massachusetts 5/21/2019 (Schoeps MK4V'S FOB)
Uploaded by:    zmanatl
DB Link:        
Details:        http://bt.etree.org/details.php?id=605829

Contact the seeder at http://db.etree.org/zmanatl

If the link to this show does not work, it was probably removed for
being non-trade-friendly.

Description / text file:
-------------------------
Sam Moss And The Non-Cowboys
The Cantab Lounge
Cambridge, Massachusetts
5/21/2019 

Source: Schoeps CCM4V'S>Lunatec V2>Sound Devices 722 (24/44.1)
FOB/DRFC/KFC/ZFC/AARP 6' From Stage, 6 1/2' High
DSP: Sound Devices 722>Sound Forge 10.0>CD Wave>flac(16)
ID3 Tagged In Foobar 2000
Recorded By: Z-Man
Seeded By: Z-Man 

Disc I 

01 Introduction By Geoff Hartley/Greeting
02 Take These Chains From My Heart And Set Me Free
03 I Hope I Never Get That Lonesome Anymore
04 That's Exactly How I Feel
05 When The Lord Made Me, He Made A Ramblin' Man
06 Home Of The Blues
07 Drivin' Nails In My Coffin
08 Satan Is Real 
09 ?
10 St. Ann's Reel 
11 Big River 
12 Send A Picture Of Mother >
13 Company Store 
14 Whiskey Before Breakfast 
15 Gone Gone Gone 

Sam Moss - Guitar And Vocals
Michael Siegel - Bass And Vocals
Stroker - Accordian 
Kathleen Parks - Fiddle

Unfortunately, There Is A Buzz In The PA Most Of The Set.

sam2019-05-21d01t01.flac:a1b773823a13467d41842d24a7335d9a
sam2019-05-21d01t02.flac:562817b3730a1e56eb62681966fd3d3c
sam2019-05-21d01t03.flac:c31b69fe15353dfbd4479faaf9d47fdf
sam2019-05-21d01t04.flac:b27658194672aa28ef5c9cd8561a409e
sam2019-05-21d01t05.flac:f342d4743325ddff46b4c8c6c70ae5f7
sam2019-05-21d01t06.flac:00bd7a65a42250bff61347f0653d576a
sam2019-05-21d01t07.flac:dac34fb9228b30c19c89cba85fb9a2e7
sam2019-05-21d01t08.flac:521898a59da4fe3d3dd643fb959c812a
sam2019-05-21d01t09.flac:7af729ed48b516d598d5bb8f04e09df9
sam2019-05-21d01t10.flac:eb9246ad908883f94718fa335d50aa49
sam2019-05-21d01t11.flac:6f0ef4ce0e380683a383257533a39eab
sam2019-05-21d01t12.flac:a6044c9c711eede7f84c76bdbf79b9b0
sam2019-05-21d01t13.flac:3a390ea3173b8c027e07c1431f79a71c
sam2019-05-21d01t14.flac:b6af4bed8ed880655633c4ab6be315fa
sam2019-05-21d01t15.flac:b006a5ddc0fcab384d3ea72c965c1e31

 length     expanded size    cdr  WAVE problems  fmt   ratio  filename
     2:30.59       26598812 B   ---   --   ---xx   flac  0.3559  sam2019-05-21d01t01.flac
     4:01.08       42531260 B   ---   --   ---xx   flac  0.4257  sam2019-05-21d01t02.flac
     4:09.58       44060060 B   ---   --   ---xx   flac  0.4196  sam2019-05-21d01t03.flac
     4:19.30       45758204 B   ---   --   ---xx   flac  0.4634  sam2019-05-21d01t04.flac
     5:19.63       56419820 B   ---   --   ---xx   flac  0.4262  sam2019-05-21d01t05.flac
     3:18.63       35075420 B   ---   --   ---xx   flac  0.5032  sam2019-05-21d01t06.flac
     4:25.69       46908332 B   ---   --   ---xx   flac  0.5067  sam2019-05-21d01t07.flac
     2:32.47       26923388 B   ---   --   ---xx   flac  0.4768  sam2019-05-21d01t08.flac
     3:21.38       35545820 B   ---   --   ---xx   flac  0.5031  sam2019-05-21d01t09.flac
     4:59.37       52830668 B   ---   --   ---xx   flac  0.4963  sam2019-05-21d01t10.flac
     3:30.31       37116956 B   ---   --   ---xx   flac  0.4932  sam2019-05-21d01t11.flac
     2:38.52       27993548 B   ---   --   ---xx   flac  0.4912  sam2019-05-21d01t12.flac
     3:37.31       38351756 B   ---   --   ---xx   flac  0.4912  sam2019-05-21d01t13.flac
     4:18.20       45558284 B   ---   --   ---xx   flac  0.5195  sam2019-05-21d01t14.flac
     3:57.20       41853884 B   ---   --   ---xx   flac  0.4798  sam2019-05-21d01t15.flac
    57:01.26      603526212 B                            0.4711  (15 files)




More information about the bittorrent mailing list