[bittorrent] Miette Hope The Cabot Theatre Beverly, Massachusetts 6/13/2019 (Schoeps CCM4V'S FOB)

Automated Mailer noreply-bt.e at etree.org
Fri Jun 14 03:00:05 UTC 2019


Band:           Other
Torrent Name:   Miette Hope The Cabot Theatre Beverly, Massachusetts 6/13/2019 (Schoeps CCM4V'S FOB)
Uploaded by:    zmanatl
DB Link:        
Details:        http://bt.etree.org/details.php?id=605814

Contact the seeder at http://db.etree.org/zmanatl

If the link to this show does not work, it was probably removed for
being non-trade-friendly.

Description / text file:
-------------------------
Miette Hope
The Cabot Theatre
Beverly, Massachusetts
6/13/2019 

Source: Schoeps CCM4V'S>Lunatec V2>Sound Devices 722 (24/44.1)
FOB/DFC/KFC/ZFC/AARP Clamped To The Front Of The Balcony
DSP: Sound Devices 722>Sound Forge 10.0>CD Wave>flac(16)
ID3 Tagged In Foobar 2000
Recorded By: Z-Man
Seeded By: Z-Man 

Disc I 

01 Band Introduction By Casey/Greeting From Miette
02 My Love
03 Release Me
04 ?
05 Enough
06 Feel It All
07 Spring 

Miette Hope - Guitar And Vocals
? - Bass/Keyboards
? - Keyboards 
? - Drums

miette2019-06-13d01t01.flac:0e468b8b32c79d374155c38a6fceee7f
miette2019-06-13d01t02.flac:f55e07f480c1033fe64a99fdefbbeb31
miette2019-06-13d01t03.flac:c0846b6b581aa14b6397992a805f2848
miette2019-06-13d01t04.flac:2f77ea1f135a61bc4c44d270481fec58
miette2019-06-13d01t05.flac:a79acf3d6bb7a2b46bb2860bc9097e47
miette2019-06-13d01t06.flac:d04ef7983f312b3703b61e652baad520
miette2019-06-13d01t07.flac:f436ba952eb8dcf1328ca8efdc60a06d

 length     expanded size    cdr  WAVE problems  fmt   ratio  filename
     1:00.59       10722812 B   ---   --   ---xx   flac  0.3669  miette2019-06-13d01t01.flac
     5:04.06       53639756 B   ---   --   ---xx   flac  0.4854  miette2019-06-13d01t02.flac
     5:26.45       57612284 B   ---   --   ---xx   flac  0.4547  miette2019-06-13d01t03.flac
     5:10.20       54731084 B   ---   --   ---xx   flac  0.4780  miette2019-06-13d01t04.flac
     3:42.44       39264332 B   ---   --   ---xx   flac  0.4983  miette2019-06-13d01t05.flac
     4:59.23       52797740 B   ---   --   ---xx   flac  0.4536  miette2019-06-13d01t06.flac
     5:02.74       53446892 B   ---   --   ---xx   flac  0.4964  miette2019-06-13d01t07.flac
    30:26.46      322214900 B                            0.4729  (7 files)





More information about the bittorrent mailing list