[bittorrent] WSP 2001-06-27 Cynthia Woods Mitchell Pavillion - The Woodlands, TX [AKG 481]

Automated Mailer noreply-bt.e at etree.org
Thu Jun 13 00:39:43 UTC 2019


Band:           Widespread Panic
Torrent Name:   WSP 2001-06-27 Cynthia Woods Mitchell Pavillion - The Woodlands, TX [AKG 481]
Uploaded by:    mfalcon
DB Link:        
Details:        http://bt.etree.org/details.php?id=605795

Contact the seeder at http://db.etree.org/mfalcon

If the link to this show does not work, it was probably removed for
being non-trade-friendly.

Description / text file:
-------------------------
Widespread Panic
6/27/01
Cynthia Woods Mitchell Pavillion
The Woodlands, TX

Source: AKG 481 > Oade m148 > modSBM-1    
Location: fob/dfc 
Taped by the 3-Headed Texas Monster
*03/01/2011 SHN>WAV>Rename>FLAC

Disc One:
Set I:
1. Papa Legba
2. Pigeons
3. The Waker >
4. Party At Your Mama's House >
5. Hatfield >
6. Little Lilly 
7. Blue Indian
8. Sometimes >
9. Blackout

Disc Two:
Set II::
1. All Time Low >
2. Worry
3. Don't Tell The Band
4. Light Is Like Water *
5. Chainsaw City * >

Disc Three:
Set II cont':

1. Drums >
2. Love Tractor
E:
3. And It Stoned Me

* with Jerry Joseph on guitar/vocals

[First 'Light Is Like Water'; Set 2 cut short due to time constraints]


    length     expanded size    cdr  WAVE problems  fmt   ratio  filename
     7:59.03       84502700 B   ---   --   ---xx   flac  0.5771  wsp2001-06-27d1t01.flac
     9:41.34      102568412 B   ---   --   ---xx   flac  0.6024  wsp2001-06-27d1t02.flac
     8:01.57       84982508 B   ---   --   ---xx   flac  0.5665  wsp2001-06-27d1t03.flac
     7:30.01       79382396 B   ---   --   ---xx   flac  0.5612  wsp2001-06-27d1t04.flac
    14:13.26      150530396 B   ---   --   ---xx   flac  0.5498  wsp2001-06-27d1t05.flac
     7:42.37       81583868 B   ---   --   ---xx   flac  0.5670  wsp2001-06-27d1t06.flac
     5:27.53       57807500 B   ---   --   ---xx   flac  0.5083  wsp2001-06-27d1t07.flac
     3:56.41       41726876 B   ---   --   ---xx   flac  0.5537  wsp2001-06-27d1t08.flac
     5:49.01       61565996 B   ---   --   ---xx   flac  0.5883  wsp2001-06-27d1t09.flac
     5:47.26       61271996 B   ---   --   ---xx   flac  0.5750  wsp2001-06-27d2t01.flac
     7:32.45       79838684 B   ---   --   ---xx   flac  0.6038  wsp2001-06-27d2t02.flac
     4:49.44       51083132 B   ---   --   ---xx   flac  0.5197  wsp2001-06-27d2t03.flac
    11:11.49      118479692 B   ---   --   ---xx   flac  0.5571  wsp2001-06-27d2t04.flac
    17:04.49      180748892 B   ---   --   ---xx   flac  0.5931  wsp2001-06-27d2t05.flac
    18:24.37      194832668 B   ---   --   ---xx   flac  0.5484  wsp2001-06-27d3t01.flac
     8:45.23       92664140 B   ---   --   ---xx   flac  0.5758  wsp2001-06-27d3t02.flac
     6:43.08       71108060 B   ---   --   ---xx   flac  0.5361  wsp2001-06-27d3t03.flac
   150:40.09     1594677916 B                            0.5659  (17 files)









More information about the bittorrent mailing list