[bittorrent] Barry Richman Trio Dixie Tavern Marietta, Georgia 6/10/2019 (Schoeps CCM4V'S FOB)

Automated Mailer noreply-bt.e at etree.org
Wed Jun 12 03:22:41 UTC 2019


Band:           Other
Torrent Name:   Barry Richman Trio  Dixie Tavern Marietta, Georgia 6/10/2019 (Schoeps CCM4V'S FOB)
Uploaded by:    zmanatl
DB Link:        
Details:        http://bt.etree.org/details.php?id=605768

Contact the seeder at http://db.etree.org/zmanatl

If the link to this show does not work, it was probably removed for
being non-trade-friendly.

Description / text file:
-------------------------
Barry Richman Trio
Dixie Tavern
Marietta, Georgia
6/10/2019 

Source: Schoeps CCM4V'S>Lunatec V2>Sound Devices 722 (24/44.1)
FOB/DRFC/KFC/ZFC/AARP 12' From Stage, 6 1/2' High
DSP: Sound Devices 722>Sound Forge 10.0>CD Wave>flac(16)
ID3 Tagged In Foobar 2000
Recorded By: Z-Man
Seeded By: Z-Man 

Disc I 

01 Tuning/Greeting
02 Cissy Strut
03 Hold That Train
04 Dreams
05 Lucky Day 
06 Band Introductions
07 Macon

Barry Richman - Guitar
Renard Clark - Bass And Vocals
Bill Diehl - Drums

barry2019-06-10d01t01.flac:ab193b2769cd9c0905dea39ccefa0ed8
barry2019-06-10d01t02.flac:4c6105cd9aed936bc35edbaad81389cf
barry2019-06-10d01t03.flac:6a4922f42866c921b4ada031304202ab
barry2019-06-10d01t04.flac:112d8182d876ac75f684f6ce19727800
barry2019-06-10d01t05.flac:e6660742e0845f79dac355a20d301e9f
barry2019-06-10d01t06.flac:e32e2dd8186ae669c534ffce8a2ff285
barry2019-06-10d01t07.flac:d87e0e4402610ab2d7db8190bd21fce5

 length     expanded size    cdr  WAVE problems  fmt   ratio  filename
     4:01.10       42535964 B   ---   --   ---xx   flac  0.3801  barry2019-06-10d01t01.flac
     9:03.46       95893436 B   ---   --   ---xx   flac  0.5088  barry2019-06-10d01t02.flac
     3:58.56       42114956 B   ---   --   ---xx   flac  0.4925  barry2019-06-10d01t03.flac
     6:07.29       64807052 B   ---   --   ---xx   flac  0.5264  barry2019-06-10d01t04.flac
     5:16.22       55794188 B   ---   --   ---xx   flac  0.5348  barry2019-06-10d01t05.flac
     3:21.62       35602268 B   ---   --   ---xx   flac  0.3268  barry2019-06-10d01t06.flac
     4:19.35       45769964 B   ---   --   ---xx   flac  0.5366  barry2019-06-10d01t07.flac
    36:08.35      382517828 B                            0.4859  (7 files)




More information about the bittorrent mailing list