[bittorrent] Empty Real Chip Jones Open Mic Jam Suburbon Tap Marietta, Georgia 06/04/2019 (Schoeps MK4V'S FOB)

Automated Mailer noreply-bt.e at etree.org
Mon Jun 10 19:45:45 UTC 2019


Band:           Other
Torrent Name:   Empty Real Chip Jones Open Mic Jam Suburbon Tap Marietta, Georgia 06/04/2019 (Schoeps MK4V'S FOB)
Uploaded by:    zmanatl
DB Link:        
Details:        http://bt.etree.org/details.php?id=605753

Contact the seeder at http://db.etree.org/zmanatl

If the link to this show does not work, it was probably removed for
being non-trade-friendly.

Description / text file:
-------------------------
Empty Real
Suburban Tap
Marietta, Georgia
6/4/2019 

Source: Schoeps MK4V'S>CMC6>Lunatec V2>Sound Devices 722 (24/44.1)
FOB/DFC/KFC/ZFC/AARP Stage Lip, 6 1/2' High
DSP: Sound Devices 722>Sound Forge 10.0>CD Wave>flac(16)
ID3 Tagged In Foobar 2000
Recorded By: Z-Man
Seeded By: Z-Man 

Disc I 

01 ?
02 ?
03 ?
04 ?
05 ?
06 ?
07 ?
08 ?

empty2019-06-04d01t01.flac:1eb769c4f4df9da6b450c18d7696072e
empty2019-06-04d01t02.flac:c886ab8ad7ac0165392ad7184573b7fc
empty2019-06-04d01t03.flac:ba2e52fa95be8fda8dfe2a56eef53dc5
empty2019-06-04d01t04.flac:a7ed5d4ce35a3d432a34010e105d1d86
empty2019-06-04d01t05.flac:c48fbd890842549367b07588154f33cd
empty2019-06-04d01t06.flac:e23a61677e63eb92d6f5d94dda90d07b
empty2019-06-04d01t07.flac:6338861384f36f3640dfc968119d24c6
empty2019-06-04d01t08.flac:28b7605b0442a88f7fb19ef06e8dfe20

length     expanded size    cdr  WAVE problems  fmt   ratio  filename
     3:18.12       34955468 B   ---   --   ---xx   flac  0.4301  empty2019-06-04d01t01.flac
     4:24.24       46626092 B   ---   --   ---xx   flac  0.4239  empty2019-06-04d01t02.flac
     4:12.14       44485772 B   ---   --   ---xx   flac  0.4429  empty2019-06-04d01t03.flac
     5:17.62       56064668 B   ---   --   ---xx   flac  0.4044  empty2019-06-04d01t04.flac
     4:45.61       50417516 B   ---   --   ---xx   flac  0.3723  empty2019-06-04d01t05.flac
     3:12.58       34005260 B   ---   --   ---xx   flac  0.4229  empty2019-06-04d01t06.flac
     5:34.41       59014076 B   ---   --   ---xx   flac  0.3686  empty2019-06-04d01t07.flac
     5:14.23       55443740 B   ---   --   ---xx   flac  0.3800  empty2019-06-04d01t08.flac
    35:59.70      381012592 B                            0.4020  (8 files)








More information about the bittorrent mailing list