[bittorrent] Deb, Jam, And The Rock Chip Jones Open Mic Jam Suburbon Tap Marietta, Georgia 06/04/2019 (Schoeps MK4V'S FOB)

Automated Mailer noreply-bt.e at etree.org
Mon Jun 10 18:10:49 UTC 2019


Band:           Other
Torrent Name:   Deb, Jam, And The Rock Chip Jones Open Mic Jam Suburbon Tap Marietta, Georgia 06/04/2019 (Schoeps MK4V'S FOB)
Uploaded by:    zmanatl
DB Link:        
Details:        http://bt.etree.org/details.php?id=605751

Contact the seeder at http://db.etree.org/zmanatl

If the link to this show does not work, it was probably removed for
being non-trade-friendly.

Description / text file:
-------------------------
Deb, Jam, And The Rock
Chip Jones Open Jam
Suburban Tap
Marietta, Georgia
6/4/2019 

Source: Schoeps MK4V'S>CMC6>Lunatec V2>Sound Devices 722 (24/44.1)
FOB/DFC/KFC/ZFC/AARP Stage Lip, 6 1/2' High
DSP: Sound Devices 722>Sound Forge 10.0>CD Wave>flac(16)
ID3 Tagged In Foobar 2000
Recorded By: Z-Man
Seeded By: Z-Man 

Disc I 

01 Introduction By Chip Jones
02 He Thinks He'll Keep Her
03 The Road
04 No One Tells You
05 Losing My Religion
06 Bread And Butter
07 Forever Young
08 Will You Still Love Me Tomorrow
09 Thanks/Outro

Deb - Guitar And Vocals
Rick - Bass And Vocals
? - Mandolin, BanJo, And Vocals

deb2019-06-04d01t01.flac:2d85d1d8650e925974937fc0ef339152
deb2019-06-04d01t02.flac:0c1f9658e9e0971d05178361becf7a90
deb2019-06-04d01t03.flac:f6941f976c68667ead39a705de25835f
deb2019-06-04d01t04.flac:099c519ff6dcbc4be922952f5d993832
deb2019-06-04d01t05.flac:5b642e87d7ffd34a0da5e61f29a654c9
deb2019-06-04d01t06.flac:5cc89bf1593b6e3e27962bfc2ec2c301
deb2019-06-04d01t07.flac:9f50c6a1a60a685f3d03b7a15d6c570c
deb2019-06-04d01t08.flac:37316d5e803f0435913f281d9e73fff0
deb2019-06-04d01t09.flac:f6aead155fee22dba0b85d0a63997c60

length     expanded size    cdr  WAVE problems  fmt   ratio  filename
     0:25.52        4532348 B   ---   --   ---xx   flac  0.2040  deb2019-06-04d01t01.flac
     4:15.42       45080828 B   ---   --   ---xx   flac  0.5055  deb2019-06-04d01t02.flac
     4:20.44       45967532 B   ---   --   ---xx   flac  0.4802  deb2019-06-04d01t03.flac
     4:42.44       49848332 B   ---   --   ---xx   flac  0.4800  deb2019-06-04d01t04.flac
     4:41.64       49718972 B   ---   --   ---xx   flac  0.4803  deb2019-06-04d01t05.flac
     4:22.04       46226252 B   ---   --   ---xx   flac  0.4631  deb2019-06-04d01t06.flac
     3:29.25       36926444 B   ---   --   ---xx   flac  0.4554  deb2019-06-04d01t07.flac
     2:54.53       30818300 B   ---   --   ---xx   flac  0.4626  deb2019-06-04d01t08.flac
     1:00.62       10729868 B   ---   --   ---xx   flac  0.4068  deb2019-06-04d01t09.flac
    30:13.15      319848876 B                            0.4703  (9 files)





More information about the bittorrent mailing list