[bittorrent] Ross Pead Solo Acoustic Collins Memorial United Methodist Church Atlanta, Georgia 6/9/2019 (Schoeps CCM4V'S FOB)

Automated Mailer noreply-bt.e at etree.org
Mon Jun 10 03:54:27 UTC 2019


Band:           Other
Torrent Name:   Ross Pead Solo Acoustic Collins Memorial United Methodist Church Atlanta, Georgia 6/9/2019 (Schoeps CCM4V'S FOB)
Uploaded by:    zmanatl
DB Link:        
Details:        http://bt.etree.org/details.php?id=605740

Contact the seeder at http://db.etree.org/zmanatl

If the link to this show does not work, it was probably removed for
being non-trade-friendly.

Description / text file:
-------------------------
Ross Pead Solo Acoustic
Collins Memorial United Methodist Church
Atlanta, Georgia
6/9/2019 

Source: Schoeps CCM4V'S>Lunatec V2>Sound Devices 722 (24/44.1)
FOB/DFC/KFC/ZFC/AARP 9' From Stage, 5' High
DSP: Sound Devices 722>Sound Forge 10.0>CD Wave>flac(16)
ID3 Tagged In Foobar 2000
Recorded By: Z-Man
Seeded By: Z-Man 

Disc I 

01 Introduction By Rob/Ross Banter
02 ?
03 Baseball Bat Song
04 Come Across The Tracks
05 The Cat That Got Away 
06 Sin City
07 Wanted Man
08 Theresa Coleman On Collins Memorial Food Pantry
09 Wide River To Cross
10 Such A Night 
11 Do You Know What It Means To Miss New Orleans
12 If It Hadn't Been For Love 
13 Theresa Talks About Collins Memorial United Methodist Church/Banter
14 By The End Of The Week 
15 Thanks/Outro

rosspead2019-06-09d01t01.flac:62446ac8b15b927f15256ae4cf7b1c87
rosspead2019-06-09d01t02.flac:26d1a95f073f749368c4273a3359583e
rosspead2019-06-09d01t03.flac:3eb29fb9817401220521e43cc80657ed
rosspead2019-06-09d01t04.flac:8192e97d297ef73cd268ab9422bc63a6
rosspead2019-06-09d01t05.flac:d20fc1b30bf292d97d3d3a8a55e74042
rosspead2019-06-09d01t06.flac:f2732ade4dba50da6868c59b0c330328
rosspead2019-06-09d01t07.flac:99a7ec0dcbbbc372adbedfe906b35719
rosspead2019-06-09d01t08.flac:7ea547c34ed94eeca08089a6ac1b2297
rosspead2019-06-09d01t09.flac:fc71cda28245690552a772ad1ad674cc
rosspead2019-06-09d01t10.flac:64733521c97459956b000f86e50babde
rosspead2019-06-09d01t11.flac:2e54b07ba2d3fba0043748a7b79235e6
rosspead2019-06-09d01t12.flac:9229ad886434c49a714ba89affaab920
rosspead2019-06-09d01t13.flac:88ba8d91e822a6cfe4927066a197c85e
rosspead2019-06-09d01t14.flac:07e24bcf509f793d5487e8d016b069a1
rosspead2019-06-09d01t15.flac:901e5449de9fd28c3563b2726f5dc59a

length     expanded size    cdr  WAVE problems  fmt   ratio  filename
     1:41.47       17926988 B   ---   --   ---xx   flac  0.2850  rosspead2019-06-09d01t01.flac
     2:59.25       31634444 B   ---   --   ---xx   flac  0.4106  rosspead2019-06-09d01t02.flac
     4:51.21       51381836 B   ---   --   ---xx   flac  0.3950  rosspead2019-06-09d01t03.flac
     5:03.31       53522156 B   ---   --   ---xx   flac  0.3985  rosspead2019-06-09d01t04.flac
     6:29.28       68685500 B   ---   --   ---xx   flac  0.3903  rosspead2019-06-09d01t05.flac
     3:55.62       41599868 B   ---   --   ---xx   flac  0.3785  rosspead2019-06-09d01t06.flac
     3:48.02       40223948 B   ---   --   ---xx   flac  0.4198  rosspead2019-06-09d01t07.flac
     6:06.40       64656524 B   ---   --   ---xx   flac  0.3347  rosspead2019-06-09d01t08.flac
     5:02.02       53277548 B   ---   --   ---xx   flac  0.3704  rosspead2019-06-09d01t09.flac
     4:23.00       46393244 B   ---   --   ---xx   flac  0.3893  rosspead2019-06-09d01t10.flac
     4:20.61       46007516 B   ---   --   ---xx   flac  0.3816  rosspead2019-06-09d01t11.flac
     3:51.33       40826060 B   ---   --   ---xx   flac  0.4382  rosspead2019-06-09d01t12.flac
     3:09.01       33341996 B   ---   --   ---xx   flac  0.3310  rosspead2019-06-09d01t13.flac
     4:10.43       44201180 B   ---   --   ---xx   flac  0.4247  rosspead2019-06-09d01t14.flac
     2:06.65       22379324 B   ---   --   ---xx   flac  0.3812  rosspead2019-06-09d01t15.flac
    61:59.11      656058132 B                            0.3847  (15 files)








More information about the bittorrent mailing list