[bittorrent] Widespread Panic Brandon Amphitheatre Brandon, Mississippi 6/8/2019 (Schoeps CCM4V'S FOB)

Automated Mailer noreply-bt.e at etree.org
Sun Jun 9 08:16:26 UTC 2019


Band:           Widespread Panic
Torrent Name:   Widespread Panic Brandon Amphitheatre Brandon, Mississippi 6/8/2019 (Schoeps CCM4V'S FOB)
Uploaded by:    zmanatl
DB Link:        
Details:        http://bt.etree.org/details.php?id=605726

Contact the seeder at http://db.etree.org/zmanatl

If the link to this show does not work, it was probably removed for
being non-trade-friendly.

Description / text file:
-------------------------
Widespread Panic
Brandon Amphitheatre
Brandon, Mississippi
6/8/2019 

Source: Schoeps MK4V'S>CMC6>Lunatec V2>Sound Devices 722 (24/44.1)
FOB/DFC/KFC/ZFC/AARP 35' From Stage, 6 1/2' High
DSP: Sound Devices 722>Sound Forge 10.0>CD Wave>flac(16)
ID3 Tagged In Foobar 2000
Recorded By: Z-Man
Seeded By: Z-Man 

Disc I 1st Set 

01 Stop/Go >
02 And It Stoned Me 
03 All Time Low
04 Hatfield
05 Papa Johnny Road 
06 Sundown Betty >
07 Who Do You Belong To? 
08 Can't Get High 
09 Thin Air (Smells Like Mississippi) >
10 Immitation Leather Shoes

Disc II 2nd Set

01 Junior >
02 Ribs And Whiskey 
03 Honkey Red 
04 Surprise Valley >
05 Airplane >
06 Take-Off Jam > 

Disc III 2nd Set Con't 

01 Drum Solo 
02 Bust It Big >
03 Last Dance
Encore:
04 JB Banter
05 Nobody's Loss >
06 You Wreck Me  

wsp2019-06-08d01t01.flac:2c71a4df91e3fa618001283bf8294bc9
wsp2019-06-08d01t02.flac:30f7482cf291917d36014d9422828512
wsp2019-06-08d01t03.flac:32ee1b52da180400ba1c2b2393664f3f
wsp2019-06-08d01t04.flac:1548a2abcfefdb333aeee9bfbbb24f63
wsp2019-06-08d01t05.flac:4e56909f0519c63b0d4c0988eb76cda7
wsp2019-06-08d01t06.flac:e74b793d36ca437fadadface3428a37f
wsp2019-06-08d01t07.flac:4b9907ecb5d1295c89837135370ca42a
wsp2019-06-08d01t08.flac:5d9efab80ebc66183d086bd8a0215e9c
wsp2019-06-08d01t09.flac:2ec20f4819a25278cad007fbefba7edf
wsp2019-06-08d01t10.flac:0f0aa0a733ff345a2b817c85c30d4b3b
wsp2019-06-08d02t01.flac:6011edd88e713375885be57135f6cd8a
wsp2019-06-08d02t02.flac:a5c6ad0a3bc2ab3d068d1c658ef4e192
wsp2019-06-08d02t03.flac:dd6a8607385442e58e04261aeddf3f18
wsp2019-06-08d02t04.flac:d18cb8a02de453aaca6829ac71fd4491
wsp2019-06-08d02t05.flac:0fe0c86552a60fe0a07ed4799ad08367
wsp2019-06-08d02t06.flac:c80b9a73765c5ad0ab7156a788e244a9
wsp2019-06-08d03t01.flac:b6e96d6bd8f658777ace7db43aee2596
wsp2019-06-08d03t02.flac:ffc3b397ada1eb453528c6b5357d798d
wsp2019-06-08d03t03.flac:a8090314375fdfb34266ce74eef8c32e
wsp2019-06-08d03t04.flac:b4204ee1f4c40847c1ea9534ded2facf
wsp2019-06-08d03t05.flac:a950dd3fa598787364184e2d3fd48a70
wsp2019-06-08d03t06.flac:c8a7f064d4a455e8be5f08335f11842d

length     expanded size    cdr  WAVE problems  fmt   ratio  filename
    13:22.71      141639836 B   ---   --   ---xx   flac  0.3950  wsp2019-06-08d01t01.flac
     5:38.22       59674988 B   ---   --   ---xx   flac  0.4060  wsp2019-06-08d01t02.flac
     6:12.36       65705516 B   ---   --   ---xx   flac  0.4665  wsp2019-06-08d01t03.flac
    11:48.31      124964156 B   ---   --   ---xx   flac  0.4170  wsp2019-06-08d01t04.flac
     7:07.50       75440444 B   ---   --   ---xx   flac  0.4379  wsp2019-06-08d01t05.flac
     6:53.25       72912044 B   ---   --   ---xx   flac  0.4471  wsp2019-06-08d01t06.flac
     5:51.29       61984652 B   ---   --   ---xx   flac  0.4249  wsp2019-06-08d01t07.flac
     3:54.23       41331740 B   ---   --   ---xx   flac  0.4763  wsp2019-06-08d01t08.flac
     4:49.11       51005516 B   ---   --   ---xx   flac  0.4757  wsp2019-06-08d01t09.flac
     4:58.03       52574300 B   ---   --   ---xx   flac  0.4764  wsp2019-06-08d01t10.flac
     6:29.33       68697260 B   ---   --   ---xx   flac  0.4650  wsp2019-06-08d02t01.flac
    10:46.34      114034412 B   ---   --   ---xx   flac  0.4177  wsp2019-06-08d02t02.flac
     7:50.00       82908044 B   ---   --   ---xx   flac  0.4122  wsp2019-06-08d02t03.flac
    19:23.25      205212044 B   ---   --   ---xx   flac  0.4297  wsp2019-06-08d02t04.flac
     6:13.60       65938364 B   ---   --   ---xx   flac  0.4052  wsp2019-06-08d02t05.flac
     6:22.47       67495388 B   ---   --   ---xx   flac  0.4203  wsp2019-06-08d02t06.flac
     9:54.29      104849852 B   ---   --   ---xx   flac  0.4103  wsp2019-06-08d03t01.flac
     7:42.74       81670892 B   ---   --   ---xx   flac  0.4663  wsp2019-06-08d03t02.flac
     9:22.14       99169772 B   ---   --   ---xx   flac  0.4440  wsp2019-06-08d03t03.flac
     0:30.12        5320268 B   ---   --   ---xx   flac  0.2851  wsp2019-06-08d03t04.flac
     5:59.46       63435836 B   ---   --   ---xx   flac  0.3769  wsp2019-06-08d03t05.flac
     4:42.09       49766012 B   ---   --   ---xx   flac  0.4494  wsp2019-06-08d03t06.flac
   165:53.09     1755731336 B                            0.4294  (22 files)





More information about the bittorrent mailing list