[bittorrent] jg1977-11-29.146764.jgb.s2.aud.flac2448

Automated Mailer noreply-bt.e at etree.org
Sat Jun 8 18:29:05 UTC 2019


Band:           Garcia
Torrent Name:   jg1977-11-29.146764.jgb.s2.aud.flac2448
Uploaded by:    nfagdtrfb
DB Link:        
Details:        http://bt.etree.org/details.php?id=605718

Contact the seeder at http://db.etree.org/nfagdtrfb

If the link to this show does not work, it was probably removed for
being non-trade-friendly.

Description / text file:
-------------------------
JERRY GARCIA BAND
Elting Gym SUNY
New Paltz NY
11-29-1977
Second Set

s2t01 The Way You Do the Things You Do
s2t02 Catfish John
s2t03 The Harder They Come
s2t04 Gomorrah
s2t05 Mystery Train
s2t06 Russian Lullaby
s2t07 Mission in the Rain

Source: AUD of unknown lineage > ? > cassette via Richie & Rip.

Transfer: XLII-S > Nakamichi CR-5A (Dolby-B in) > Edirol FA-66 > 
Wavelab 2448 > CD-Wave (24bit output) > TLH > FLAC 2448 tagged. 
Transferred by Andrew F. 06/2019

    length     expanded size    cdr  WAVE problems  fmt   ratio  filename
    10:36.853     183413804 B   cxx   --   ---xx   flac  0.7545  jgb1977-11-29s2t01.flac
    10:03.573     173829164 B   cxx   --   ---xx   flac  0.7484  jgb1977-11-29s2t02.flac
    14:27.733     249907244 B   cxx   --   ---xx   flac  0.7498  jgb1977-11-29s2t03.flac
     6:33.693     113383724 B   cxx   --   ---xx   flac  0.7388  jgb1977-11-29s2t04.flac
     9:22.213     161917484 B   cxx   --   ---xx   flac  0.7370  jgb1977-11-29s2t05.flac
    14:41.453     253858604 B   cxx   --   ---xx   flac  0.7291  jgb1977-11-29s2t06.flac
    11:09.832     192911762 B   cxx   --   ---xx   flac  0.7335  jgb1977-11-29s2t07.flac
    76:55.352    1329221786 B                            0.7415  (7 files)

No errors occured.




More information about the bittorrent mailing list