[bittorrent] Bee's Deluxe City Winery Boston, Massachusetts 5/26/2019 (Schoeps MK4V'S FOB)

Automated Mailer noreply-bt.e at etree.org
Sat Jun 8 16:00:57 UTC 2019


Band:           Other
Torrent Name:   Bee's Deluxe City Winery Boston, Massachusetts 5/26/2019 (Schoeps MK4V'S FOB)
Uploaded by:    zmanatl
DB Link:        
Details:        http://bt.etree.org/details.php?id=605715

Contact the seeder at http://db.etree.org/zmanatl

If the link to this show does not work, it was probably removed for
being non-trade-friendly.

Description / text file:
-------------------------
Bee's Deluxe
City Winery
Boston, Massachusetts
5/26/2019 

Source: Schoeps MK4V'S>CMC6>Lunatec V2>Sound Devices 722 (24/44.1)
FOB/DFC/KFC/ZFC/AARP 21' From Stage, 6 1/2' High
DSP: Sound Devices 722>Sound Forge 10.0>CD Wave>flac(16)
ID3 Tagged In Foobar 2000
Recorded By: Z-Man
Seeded By: Z-Man 

Disc I 

01 Introduction 
02 ?
03 ?
04 ?
05 ?
06 ?
07 Imaginary Conversation Between New York And Buddy Guy
08 ?
09 ?
10 Band Introductions

bees2019-05-26d01t01.flac:8ad10f9b271ef2d5debac6dbbd6f9e23
bees2019-05-26d01t02.flac:c2f15b17483d6d3e2cc3747713333642
bees2019-05-26d01t03.flac:6b3040738ecabbb20014de75ccb145dd
bees2019-05-26d01t04.flac:dd73a4cbe180e97aa467efd3b5df238b
bees2019-05-26d01t05.flac:2a23ce5a3ebedf841cdda839cdff0190
bees2019-05-26d01t06.flac:a80308ae1c38930598a0809355cfd6ca
bees2019-05-26d01t07.flac:845943616e9f3e47f9e99fc5d1952e3d
bees2019-05-26d01t08.flac:6210203aade466c076e1c91bce8269f3
bees2019-05-26d01t09.flac:1c143884e12939cce4c03f67bc99d15e
bees2019-05-26d01t10.flac:e746ace7402eca7c8e86ea5bb06b9f1a
bees2019-05-26d01t11.flac:1c599db5b1609c5afa074c51ce1040e9

 length     expanded size    cdr  WAVE problems  fmt   ratio  filename
     1:18.50       13876844 B   ---   --   ---xx   flac  0.3636  bees2019-05-26d01t01.flac
     2:59.68       31735580 B   ---   --   ---xx   flac  0.4867  bees2019-05-26d01t02.flac
     2:38.12       27899468 B   ---   --   ---xx   flac  0.4679  bees2019-05-26d01t03.flac
     4:05.20       43265084 B   ---   --   ---xx   flac  0.4475  bees2019-05-26d01t04.flac
     2:40.45       28329884 B   ---   --   ---xx   flac  0.5197  bees2019-05-26d01t05.flac
     3:58.23       42037340 B   ---   --   ---xx   flac  0.5048  bees2019-05-26d01t06.flac
     2:37.36       27779516 B   ---   --   ---xx   flac  0.3112  bees2019-05-26d01t07.flac
     3:26.72       36507788 B   ---   --   ---xx   flac  0.4559  bees2019-05-26d01t08.flac
     3:10.37       33603068 B   ---   --   ---xx   flac  0.4694  bees2019-05-26d01t09.flac
     4:13.17       44669228 B   ---   --   ---xx   flac  0.4563  bees2019-05-26d01t10.flac
     0:57.31       10127756 B   ---   --   ---xx   flac  0.4113  bees2019-05-26d01t11.flac
    32:06.36      339831556 B                            0.4545  (11 files)





More information about the bittorrent mailing list