[bittorrent] Widespread Panic Brandon Amphitheatre Brandon, Mississippi 6/7/2019 (Schoeps CCM4V'S FOB)

Automated Mailer noreply-bt.e at etree.org
Sat Jun 8 08:38:27 UTC 2019


Band:           Widespread Panic
Torrent Name:   Widespread Panic Brandon Amphitheatre Brandon, Mississippi 6/7/2019 (Schoeps CCM4V'S FOB)
Uploaded by:    zmanatl
DB Link:        
Details:        http://bt.etree.org/details.php?id=605711

Contact the seeder at http://db.etree.org/zmanatl

If the link to this show does not work, it was probably removed for
being non-trade-friendly.

Description / text file:
-------------------------
Widespread Panic
Brandon Amphitheatre
Brandon, Mississippi
6/7/2019 

Source: Schoeps MK4V'S>CMC6>Lunatec V2>Sound Devices 722 (24/44.1)
FOB/DFC/KFC/ZFC/AARP 35' From Stage, 6 1/2' High
DSP: Sound Devices 722>Sound Forge 10.0>CD Wave>flac(16)
ID3 Tagged In Foobar 2000
Recorded By: Z-Man
Seeded By: Z-Man 

Disc I 1st Set 

01 Greeting From JB 
02 Little Kin >
03 Weak Brain, Narrow Mind
04 Pleas >
05 Such A Night Jam >
06 Greta >
07 Stop/Go Jam >
08 Cotton Was King >
09 Time Zones 
10 Hope In A Hopeless World 
11 Me And The Devil Blues >
12 Makes Sense To Me

Disc II 2nd Set

01 Ain't No Use >
02 Jam >
03 Papa's Home >
04 Jam > 
05 Old Neighborhood >
06 One By One >
07 Climb To Safety 

Disc III 2nd Set Con't 

01 *Diner >
02 That Thang >
03 Stop Breakin' Down Blues 
04 Holden Oversoul
Encore:
05 #Chainsaw City

* The Left Stack Of Speakers On Stage, Went Out From The 4:57 Mark, Until The 9:19 Mark. 
# With Steve Lopez On Percussion

wsp2019-06-07d01t01.flac:525033df7329ff8f63866dab6bc0a037
wsp2019-06-07d01t02.flac:a79b97e6968d41e66e1ae808319d1bbe
wsp2019-06-07d01t03.flac:0df0cfe42deb337d48ff85ce76d1c64c
wsp2019-06-07d01t04.flac:b3021a450253887c9ce85835f57f374f
wsp2019-06-07d01t05.flac:cc55156039038231eba7590aae269281
wsp2019-06-07d01t06.flac:86118f1a691f29d69479283c2788f9e8
wsp2019-06-07d01t07.flac:5e9082b24c61cbf844325de8cc2781bc
wsp2019-06-07d01t08.flac:35f243f42b157cb734e5f236558e65ab
wsp2019-06-07d01t09.flac:5dfa95f56e92e812b2f66e2f25c8d456
wsp2019-06-07d01t10.flac:0ad83fb9d48620b986fe869226bc0763
wsp2019-06-07d01t11.flac:58561deab3a97000b7829798f2117923
wsp2019-06-07d01t12.flac:d3639a6a743628adbe043ef8b4ab9fa4
wsp2019-06-07d02t01.flac:664c8157595d1df605b543d5ae462a0c
wsp2019-06-07d02t02.flac:287d0c66112b6caf23a67fdce34f1208
wsp2019-06-07d02t03.flac:58298905d2f0b02d000b590398575ee5
wsp2019-06-07d02t04.flac:fe950fa072a106532baa7cf3936cce34
wsp2019-06-07d02t05.flac:ce0d3bb1e8effb824e6066d96a5e9b60
wsp2019-06-07d02t06.flac:bb42a316d6539482645bf95b95417cb5
wsp2019-06-07d02t07.flac:b7b51d9ac7156c0929024c11ea70f3ff
wsp2019-06-07d03t01.flac:c67fd75b92cd9024d770a4e88db9d0b4
wsp2019-06-07d03t02.flac:9b843d4b739674bb813aded18062b537
wsp2019-06-07d03t03.flac:996464f111f9e455c4764b6dbf3b4534
wsp2019-06-07d03t04.flac:3698f5921134c19f9cbac9236cb83c7a
wsp2019-06-07d03t05.flac:53544456bb54da0c0330979cff8f0d53

  length     expanded size    cdr  WAVE problems  fmt   ratio  filename
     0:35.07        6190508 B   ---   --   ---xx   flac  0.2927  wsp2019-06-07d01t01.flac
     6:16.67       66484028 B   ---   --   ---xx   flac  0.4473  wsp2019-06-07d01t02.flac
     4:11.26       44337596 B   ---   --   ---xx   flac  0.4179  wsp2019-06-07d01t03.flac
    10:10.11      107629916 B   ---   --   ---xx   flac  0.4216  wsp2019-06-07d01t04.flac
     1:30.40       15970124 B   ---   --   ---xx   flac  0.3070  wsp2019-06-07d01t05.flac
     8:34.04       90679052 B   ---   --   ---xx   flac  0.4461  wsp2019-06-07d01t06.flac
     4:42.03       49751900 B   ---   --   ---xx   flac  0.4285  wsp2019-06-07d01t07.flac
     6:44.16       71303276 B   ---   --   ---xx   flac  0.4255  wsp2019-06-07d01t08.flac
     7:41.20       81367484 B   ---   --   ---xx   flac  0.4135  wsp2019-06-07d01t09.flac
     6:24.62       67883468 B   ---   --   ---xx   flac  0.4220  wsp2019-06-07d01t10.flac
    10:45.36      113862716 B   ---   --   ---xx   flac  0.3688  wsp2019-06-07d01t11.flac
     5:47.12       61239068 B   ---   --   ---xx   flac  0.4298  wsp2019-06-07d01t12.flac
     9:07.26       96551996 B   ---   --   ---xx   flac  0.3855  wsp2019-06-07d02t01.flac
     4:35.55       48639404 B   ---   --   ---xx   flac  0.4247  wsp2019-06-07d02t02.flac
     9:27.43      100119980 B   ---   --   ---xx   flac  0.4363  wsp2019-06-07d02t03.flac
     5:06.62       54124268 B   ---   --   ---xx   flac  0.3977  wsp2019-06-07d02t04.flac
     6:54.50       73147244 B   ---   --   ---xx   flac  0.4457  wsp2019-06-07d02t05.flac
     6:22.12       67413068 B   ---   --   ---xx   flac  0.4173  wsp2019-06-07d02t06.flac
     6:17.53       66627500 B   ---   --   ---xx   flac  0.4306  wsp2019-06-07d02t07.flac
    17:59.07      190352108 B   ---   --   ---xx   flac  0.3996  wsp2019-06-07d03t01.flac
     9:00.05       95267804 B   ---   --   ---xx   flac  0.3998  wsp2019-06-07d03t02.flac
     6:58.26       73796396 B   ---   --   ---xx   flac  0.4264  wsp2019-06-07d03t03.flac
     5:33.69       58903532 B   ---   --   ---xx   flac  0.4356  wsp2019-06-07d03t04.flac
     9:45.22      103245788 B   ---   --   ---xx   flac  0.4429  wsp2019-06-07d03t05.flac
   170:31.59     1804888224 B                            0.4170  (24 files)





More information about the bittorrent mailing list