[bittorrent] Honeywood From The Earth Brewing Company Roswell, Georgia 6/6/2019 (Schoeps CCM4V'S FOB)

Automated Mailer noreply-bt.e at etree.org
Fri Jun 7 05:10:03 UTC 2019


Band:           Other
Torrent Name:   Honeywood From The Earth Brewing Company Roswell, Georgia 6/6/2019 (Schoeps CCM4V'S FOB)
Uploaded by:    zmanatl
DB Link:        
Details:        http://bt.etree.org/details.php?id=605700

Contact the seeder at http://db.etree.org/zmanatl

If the link to this show does not work, it was probably removed for
being non-trade-friendly.

Description / text file:
-------------------------
Honeywood
>From The Earth Brewing Company
Roswel, Georgia
6/6/2019 

Source: Schoeps MK4V'S>CMC6>Lunatec V2>Sound Devices 722 (24/44.1)
FOB/DFC/KFC/ZFC/AARP Stage Lip, 6 1/2' High
DSP: Sound Devices 722>Sound Forge 10.0>CD Wave>flac(16)
ID3 Tagged In Foobar 2000
Recorded By: Z-Man
Seeded By: Z-Man 

Disc I 1st Set 

01 Me And My Uncle >   
02 Mexicali Blues 
03 Bend In The River 
04 Do The Boogie
05 *Aiko-Aiko
06 Commission Me 
07 The Cuckoo's Nest 
08 Dancin' In The Moonlight 
09 Cumberland Bues 
10 Uncle Pen

Disc II 2nd Set

01 Ginseng Sullivan   
02 Hold What You Got
03 Little Sadie 
04 Them Old Country Blues 
05 Atlantic City
06 Way Down South In New Orleans
07 Jackero
08 Model T
09 Shady Grove >
10 The Devil Went Down To Georgia
11 What The Funk
12 Bluegrass Revolution 
Encore:
13 Bring Em' Back
14 Whiskey Berfore Breakfast

* Dedicated To The Passing Today Of Dr. John

Jason Koornick - Mandoli, BanJo, And Vocals
Russell Brown - Guitar And Vocals
Scott Balun - Bass
Jacques Dolan - Fiddle
Zach Harrison -Drums

honeywood2019-06-06d01t01.flac:7045db132f8450d8131235b3bd43d151
honeywood2019-06-06d01t02.flac:27e66c98caaed2b122b4cc215925584f
honeywood2019-06-06d01t03.flac:174f80bdee5af49f282e4c8e4c18f8a6
honeywood2019-06-06d01t04.flac:cfcf5c19ea883da671fa6704341815b9
honeywood2019-06-06d01t05.flac:4e61f05636fb42d0f88bd6798991c31d
honeywood2019-06-06d01t06.flac:7859dbbd6c52e21016f1492d1c1b4158
honeywood2019-06-06d01t07.flac:55f188870da54aa8c7844f44a3b6c54e
honeywood2019-06-06d01t08.flac:ee0336418a80930bf9131ebe18520023
honeywood2019-06-06d01t09.flac:17f98c5c1ac5ca92fa2b2f78c1b17fff
honeywood2019-06-06d01t10.flac:933877e38660373c679a0c5595ef53e8
honeywood2019-06-06d02t01.flac:ed85ac3069b3671250961c1b13a1034a
honeywood2019-06-06d02t02.flac:677af650c5a507fa5aae56cd03f9e80c
honeywood2019-06-06d02t03.flac:b9eb7add684e2a465fba5a7f5b2ac93a
honeywood2019-06-06d02t04.flac:0d652c0b0cdf46801325864dfe497ec3
honeywood2019-06-06d02t05.flac:0b6fb7f9f9f6793013401f0f81a764fe
honeywood2019-06-06d02t06.flac:184c588863397256c8def8aec5481e7d
honeywood2019-06-06d02t07.flac:bb4c202e692e848fa5320c6b1a05d1ee
honeywood2019-06-06d02t08.flac:aa16839d65fb4cabf3e7a4d0942a5c3b
honeywood2019-06-06d02t09.flac:2d3cb92baf22f1eb767d1252f606b28b
honeywood2019-06-06d02t10.flac:eb3fc2dd3bc5a586f6772007de998ab1
honeywood2019-06-06d02t11.flac:0719efd5df1f40cfa5736d07242923cd
honeywood2019-06-06d02t12.flac:06877f5b506d2dc63b4eb15ea21cbdea
honeywood2019-06-06d02t13.flac:4c0dfb2de525d4c32adf28ada8edccf1
honeywood2019-06-06d02t14.flac:f0e221a6ee854fb004a48d44e830b654

length     expanded size    cdr  WAVE problems  fmt   ratio  filename
     4:23.60       46534364 B   ---   --   ---xx   flac  0.4551  honeywood2019-06-06d01t01.flac
     6:09.31       65164556 B   ---   --   ---xx   flac  0.4394  honeywood2019-06-06d01t02.flac
     4:56.41       52310876 B   ---   --   ---xx   flac  0.4222  honeywood2019-06-06d01t03.flac
     5:13.43       55314380 B   ---   --   ---xx   flac  0.4835  honeywood2019-06-06d01t04.flac
     5:50.32       61815308 B   ---   --   ---xx   flac  0.4454  honeywood2019-06-06d01t05.flac
     9:05.73       96309740 B   ---   --   ---xx   flac  0.4547  honeywood2019-06-06d01t06.flac
    14:17.60      151315964 B   ---   --   ---xx   flac  0.4359  honeywood2019-06-06d01t07.flac
     4:49.32       51054908 B   ---   --   ---xx   flac  0.4174  honeywood2019-06-06d01t08.flac
     7:48.11       82581116 B   ---   --   ---xx   flac  0.4648  honeywood2019-06-06d01t09.flac
     3:44.47       39624188 B   ---   --   ---xx   flac  0.4205  honeywood2019-06-06d01t10.flac
     4:35.16       48547676 B   ---   --   ---xx   flac  0.4413  honeywood2019-06-06d02t01.flac
     4:16.32       45233708 B   ---   --   ---xx   flac  0.4541  honeywood2019-06-06d02t02.flac
     4:06.20       43441484 B   ---   --   ---xx   flac  0.4221  honeywood2019-06-06d02t03.flac
     6:58.43       73836380 B   ---   --   ---xx   flac  0.4712  honeywood2019-06-06d02t04.flac
     8:13.51       87085196 B   ---   --   ---xx   flac  0.4491  honeywood2019-06-06d02t05.flac
     6:18.27       66742748 B   ---   --   ---xx   flac  0.4805  honeywood2019-06-06d02t06.flac
     5:31.48       58501340 B   ---   --   ---xx   flac  0.4845  honeywood2019-06-06d02t07.flac
     8:39.66       91706876 B   ---   --   ---xx   flac  0.4457  honeywood2019-06-06d02t08.flac
     4:17.51       45454796 B   ---   --   ---xx   flac  0.4551  honeywood2019-06-06d02t09.flac
     3:20.27       35343548 B   ---   --   ---xx   flac  0.4610  honeywood2019-06-06d02t10.flac
     6:45.44       71545532 B   ---   --   ---xx   flac  0.4418  honeywood2019-06-06d02t11.flac
     7:43.67       81830828 B   ---   --   ---xx   flac  0.5096  honeywood2019-06-06d02t12.flac
     0:55.59        9840812 B   ---   --   ---xx   flac  0.3100  honeywood2019-06-06d02t13.flac
     4:14.59       44944412 B   ---   --   ---xx   flac  0.4781  honeywood2019-06-06d02t14.flac
   142:17.65     1506080736 B                            0.4532  (24 files)




More information about the bittorrent mailing list