[bittorrent] Mike Tucker Trio Chianti Tuscan Restaurant And Jazz Lounge Beverly, Massachusetts 5/23/2019 (Schoeps MK4V'S FOB)

Automated Mailer noreply-bt.e at etree.org
Thu Jun 6 20:02:05 UTC 2019


Band:           Other
Torrent Name:   Mike Tucker Trio Chianti Tuscan Restaurant And Jazz Lounge Beverly, Massachusetts 5/23/2019 (Schoeps MK4V'S FOB)
Uploaded by:    zmanatl
DB Link:        
Details:        http://bt.etree.org/details.php?id=605696

Contact the seeder at http://db.etree.org/zmanatl

If the link to this show does not work, it was probably removed for
being non-trade-friendly.

Description / text file:
-------------------------
Mike Tucker Trio
Chianti Tuscan Restaurant And Jazz Lounge
Beverly, Massachusetts
5/23/2019 

Source: Schoeps MK4V'S>CMC6>Lunatec V2>Sound Devices 722 (24/44.1)
FOB/DFC/KFC/ZFC/AARP 5' From Stage, 6 1/2' High
DSP: Sound Devices 722>Sound Forge 10.0>CD Wave>flac(16)
ID3 Tagged In Foobar 2000
Recorded By: Z-Man
Seeded By: Z-Man 

Disc I 

01 ?
02 Band Introductions
03 ?
04 Star Star Alabama
05 ?
06 ?
07 ?

mike2019-05-23d01t01.flac:22c56719e2120ab9b85d5e4a3c53570b
mike2019-05-23d01t02.flac:ca610688d74d91f65215c4c57bf9cf41
mike2019-05-23d01t03.flac:509a86ca5b6a0b44c40214e93a4a9db9
mike2019-05-23d01t04.flac:b38b568e7a0a54dae449b196be49cf7a
mike2019-05-23d01t05.flac:1a2f4657da8e57c83ec065493a32456d
mike2019-05-23d01t06.flac:5c9897878c8c5ae508e11cb911e8ab07
mike2019-05-23d01t07.flac:a5eb855adee7ff91cac4f2d0ebdd90df

 length     expanded size    cdr  WAVE problems  fmt   ratio  filename
     8:09.55       86389004 B   ---   --   ---xx   flac  0.5331  mike2019-05-23d01t01.flac
     1:01.08       10779260 B   ---   --   ---xx   flac  0.3188  mike2019-05-23d01t02.flac
     9:46.17      103410428 B   ---   --   ---xx   flac  0.5470  mike2019-05-23d01t03.flac
    10:04.20      106592684 B   ---   --   ---xx   flac  0.3976  mike2019-05-23d01t04.flac
     9:19.21       98657036 B   ---   --   ---xx   flac  0.4776  mike2019-05-23d01t05.flac
     9:30.66      100703276 B   ---   --   ---xx   flac  0.4295  mike2019-05-23d01t06.flac
    14:58.22      158458988 B   ---   --   ---xx   flac  0.5340  mike2019-05-23d01t07.flac
    62:49.59      664990676 B                            0.4864  (7 files)



More information about the bittorrent mailing list