[bittorrent] The Sandy Ridge Boys The Cantab Lounge Cambridge, Massachusetts 5/28/2019 (Schoeps MK4V'S FOB)

Automated Mailer noreply-bt.e at etree.org
Thu Jun 6 19:19:19 UTC 2019


Band:           Other
Torrent Name:   The Sandy Ridge Boys The Cantab Lounge Cambridge, Massachusetts 5/28/2019 (Schoeps MK4V'S FOB)
Uploaded by:    zmanatl
DB Link:        
Details:        http://bt.etree.org/details.php?id=605695

Contact the seeder at http://db.etree.org/zmanatl

If the link to this show does not work, it was probably removed for
being non-trade-friendly.

Description / text file:
-------------------------
The Sandy Ridge Boys
The Cantab Lounge
Cambridge, Massachusetts
5/28/2019 

Source: Schoeps MK4V'S>CMC6>Lunatec V2>Sound Devices 722 (24/44.1)
FOB/DFC/KFC/ZFC/AARP 7' From Stage, 6 1/2' High
DSP: Sound Devices 722>Sound Forge 10.0>CD Wave>flac(16)
ID3 Tagged In Foobar 2000
Recorded By: Z-Man
Seeded By: Z-Man 

Disc I 

01 Introduction By Geoff Bartley
02 Hello City Limits
03 Long Journey Home
04 I'll Go Steppin' Too
05 Mr. Spaceman
06 Act Naturally
07 Sittin' On Top Of The World
08 Fox On The Run
09 Pretty Woman
10 I'm Not The Obly One
11 Johnny B. Goode
12 Band Introductios
13 Kentucky Girl
14 I'm Blue And I'm Lonesome Too
15 Sophronie
16 Somewhere Over The Rainbow
17 Hey Good Lookin' 
18 On And On
19 Leavin'
20 Band Introductions/Outro

There is an incessant buzz coming out of the right speaker. 

thesandy2019-05-28d01t01.flac:f488d188415ecc9a06bd97cf3dd8f7aa
thesandy2019-05-28d01t02.flac:a85657674a38df14087593e05375a8d6
thesandy2019-05-28d01t03.flac:73855188a712215abd5930813d3a74bb
thesandy2019-05-28d01t04.flac:fe9566340bf57ee0aa5301030bfdfa93
thesandy2019-05-28d01t05.flac:aa256a5127d30f74b56429a89e647a1c
thesandy2019-05-28d01t06.flac:4e5a3b0150f5249eabae2955099f5c57
thesandy2019-05-28d01t07.flac:f9e32c57e3d665a79639572520a0d528
thesandy2019-05-28d01t08.flac:2efc80158c149a8ade80a03bddcbee72
thesandy2019-05-28d01t09.flac:3531c84b65c4cefd303f218e2c590705
thesandy2019-05-28d01t10.flac:0cf49471b9ddf1f3dbdc67ea0c84036f
thesandy2019-05-28d01t11.flac:c68ca59473fd000c3cd1e70adde21fa6
thesandy2019-05-28d01t12.flac:d3f637fe2b56abe37f8abd7ba8201437
thesandy2019-05-28d01t13.flac:0676e0df3a11945c1591a9d7e8f40800
thesandy2019-05-28d01t14.flac:675f1cfccc019f8b0ec18d24e8ef4f5f
thesandy2019-05-28d01t15.flac:ffe89baa52cb0c0db25c58f7a7d88a21
thesandy2019-05-28d01t16.flac:d7c83894944caa90ef0971abcc4058c0
thesandy2019-05-28d01t17.flac:e21dc6b76a928cb983b69c9260fd6c60
thesandy2019-05-28d01t18.flac:4c3714569aee23b40ce960efc6a043a4
thesandy2019-05-28d01t19.flac:d4064a064458d0ea4b38985f618e0371
thesandy2019-05-28d01t20.flac:279a1ea5efe1167561b2fd217db0c4d6

 length     expanded size    cdr  WAVE problems  fmt   ratio  filename
     0:44.53        7886300 B   ---   --   ---xx   flac  0.4125  thesandy2019-05-28d01t01.flac
     3:16.02       34579148 B   ---   --   ---xx   flac  0.4792  thesandy2019-05-28d01t02.flac
     3:29.31       36940556 B   ---   --   ---xx   flac  0.4780  thesandy2019-05-28d01t03.flac
     3:42.50       39278444 B   ---   --   ---xx   flac  0.4540  thesandy2019-05-28d01t04.flac
     3:59.55       42289004 B   ---   --   ---xx   flac  0.4505  thesandy2019-05-28d01t05.flac
     3:32.32       37472108 B   ---   --   ---xx   flac  0.4617  thesandy2019-05-28d01t06.flac
     3:15.32       34473308 B   ---   --   ---xx   flac  0.4863  thesandy2019-05-28d01t07.flac
     3:06.08       32829260 B   ---   --   ---xx   flac  0.4606  thesandy2019-05-28d01t08.flac
     4:28.00       47275244 B   ---   --   ---xx   flac  0.4506  thesandy2019-05-28d01t09.flac
     3:36.00       38102444 B   ---   --   ---xx   flac  0.4645  thesandy2019-05-28d01t10.flac
     2:41.11       28426316 B   ---   --   ---xx   flac  0.4944  thesandy2019-05-28d01t11.flac
     1:10.11       12373916 B   ---   --   ---xx   flac  0.4164  thesandy2019-05-28d01t12.flac
     3:10.31       33588956 B   ---   --   ---xx   flac  0.4806  thesandy2019-05-28d01t13.flac
     3:05.20       32681084 B   ---   --   ---xx   flac  0.4600  thesandy2019-05-28d01t14.flac
     3:31.01       37222796 B   ---   --   ---xx   flac  0.4802  thesandy2019-05-28d01t15.flac
     4:09.42       44022428 B   ---   --   ---xx   flac  0.4927  thesandy2019-05-28d01t16.flac
     3:56.08       41649260 B   ---   --   ---xx   flac  0.4914  thesandy2019-05-28d01t17.flac
     4:25.16       46783676 B   ---   --   ---xx   flac  0.4917  thesandy2019-05-28d01t18.flac
     3:34.04       37759052 B   ---   --   ---xx   flac  0.5178  thesandy2019-05-28d01t19.flac
     1:08.66       12150476 B   ---   --   ---xx   flac  0.4336  thesandy2019-05-28d01t20.flac
    64:02.23      677783776 B                            0.4733  (20 files)







More information about the bittorrent mailing list