[bittorrent] Ed White Solo Acoustic The Cantab Lounge Cambridge, Massachusetts 5/27/2019 (Schoeps MK4V'S FOB)

Automated Mailer noreply-bt.e at etree.org
Thu Jun 6 14:36:43 UTC 2019


Band:           Other
Torrent Name:   Ed White Solo Acoustic The Cantab Lounge Cambridge, Massachusetts 5/27/2019 (Schoeps MK4V'S FOB)
Uploaded by:    zmanatl
DB Link:        
Details:        http://bt.etree.org/details.php?id=605693

Contact the seeder at http://db.etree.org/zmanatl

If the link to this show does not work, it was probably removed for
being non-trade-friendly.

Description / text file:
-------------------------
Ed White Solo Acoustic
The Cantab Lounge
Cambridge, Massachusetts
5/27/2019 

Source: Schoeps MK4V'S>CMC6>Lunatec V2>Sound Devices 722 (24/44.1)
FOB/DFC/KFC/ZFC/AARP 7' From Stage, 6 1/2' High
DSP: Sound Devices 722>Sound Forge 10.0>CD Wave>flac(16)
ID3 Tagged In Foobar 2000
Recorded By: Z-Man
Seeded By: Z-Man 

Disc I 

01 Introduction By Geoff Bartley/Greeting
02 Land Of Glass Pinecones
03 ?
04 Doris Day
05 I'll Be Your Baby Tonight
06 If Not For You
07 Oh Sister
08 Under The Radar
09 Ride Away
10 And The Day Goes By Without You
11 I Fall Up
12 Oh Susannah 
13 Only Us
14 It's A Matter Of Time
15 In My Mind
16 Somewhere Over The Rainbow
17 Geoff Bartley Outro/Happy Birthday To Ed

edwhite2019-05-27d01t01.flac:b26ee24d558a292a3206cc9b78a466a6
edwhite2019-05-27d01t02.flac:f175c75b95b0c9cff5e4e4b412ab5ae8
edwhite2019-05-27d01t03.flac:90ffaa5951112ddbcd789f471b4c469d
edwhite2019-05-27d01t04.flac:43aef16ccf4f8f887538587227e0e399
edwhite2019-05-27d01t05.flac:32e133f3649caaed30a5472fd1c02bfb
edwhite2019-05-27d01t06.flac:9f9adf7f636ea38e9715bd41a219fb69
edwhite2019-05-27d01t07.flac:beb52c7222588ab5b9e33f0cc78dfa00
edwhite2019-05-27d01t08.flac:227b08ded65e73f7e5324b1ec0533749
edwhite2019-05-27d01t09.flac:0055c8f5b47c4e241e66c1c95ce828ab
edwhite2019-05-27d01t10.flac:096933337be9e6966fe8af9a1904aad0
edwhite2019-05-27d01t11.flac:12b31d666ac2d95bc25faf52ab8eb75d
edwhite2019-05-27d01t12.flac:b6e7a8f00b9c719f382e72547b1d6c95
edwhite2019-05-27d01t13.flac:65b8b044d28c5da63a825e970f0a343f
edwhite2019-05-27d01t14.flac:07c69a5a0734dc3f014540539c3988f6
edwhite2019-05-27d01t15.flac:1fe55b2a484c5f65dd6b6561941b82da
edwhite2019-05-27d01t16.flac:8112a03266fd98bfdf831823c8e97005
edwhite2019-05-27d01t17.flac:769955fe278ae75a13f8afc63dfa06f7

length     expanded size    cdr  WAVE problems  fmt   ratio  filename
     1:02.66       11092076 B   ---   --   ---xx   flac  0.3753  edwhite2019-05-27d01t01.flac
     4:19.65       45840524 B   ---   --   ---xx   flac  0.4604  edwhite2019-05-27d01t02.flac
     2:59.68       31735580 B   ---   --   ---xx   flac  0.4518  edwhite2019-05-27d01t03.flac
     2:46.15       29317724 B   ---   --   ---xx   flac  0.4453  edwhite2019-05-27d01t04.flac
     2:33.20       27036284 B   ---   --   ---xx   flac  0.4484  edwhite2019-05-27d01t05.flac
     2:43.10       28776764 B   ---   --   ---xx   flac  0.4448  edwhite2019-05-27d01t06.flac
     2:40.20       28271084 B   ---   --   ---xx   flac  0.4308  edwhite2019-05-27d01t07.flac
     3:03.60       32422364 B   ---   --   ---xx   flac  0.4335  edwhite2019-05-27d01t08.flac
     3:22.33       35710460 B   ---   --   ---xx   flac  0.4535  edwhite2019-05-27d01t09.flac
     4:16.73       45330140 B   ---   --   ---xx   flac  0.4198  edwhite2019-05-27d01t10.flac
     3:48.24       40275692 B   ---   --   ---xx   flac  0.4093  edwhite2019-05-27d01t11.flac
     2:17.13       24197420 B   ---   --   ---xx   flac  0.4378  edwhite2019-05-27d01t12.flac
     2:52.33       30418460 B   ---   --   ---xx   flac  0.3837  edwhite2019-05-27d01t13.flac
     3:27.17       36554828 B   ---   --   ---xx   flac  0.3891  edwhite2019-05-27d01t14.flac
     4:23.07       46409708 B   ---   --   ---xx   flac  0.3814  edwhite2019-05-27d01t15.flac
     2:12.58       23421260 B   ---   --   ---xx   flac  0.4580  edwhite2019-05-27d01t16.flac
     1:33.68       16565180 B   ---   --   ---xx   flac  0.3887  edwhite2019-05-27d01t17.flac
    50:23.50      533375548 B                            0.4254  (17 files)







More information about the bittorrent mailing list