[bittorrent] WSP 2001-06-19 Paolo Soleri Amphitheater - Santa Fe, NM [AK40]

Automated Mailer noreply-bt.e at etree.org
Thu Jun 6 00:47:09 UTC 2019


Band:           Widespread Panic
Torrent Name:   WSP 2001-06-19 Paolo Soleri Amphitheater - Santa Fe, NM [AK40]
Uploaded by:    mfalcon
DB Link:        
Details:        http://bt.etree.org/details.php?id=605688

Contact the seeder at http://db.etree.org/mfalcon

If the link to this show does not work, it was probably removed for
being non-trade-friendly.

Description / text file:
-------------------------
Widespread Panic
2001-06-19
Paolo Soleri Amphitheater
Santa Fe, NM

Neumann AK40>LC3>KM100>AD-1000 (FOB)  
Converted and Seeded by Flynn Pritchett
*02/26/2011 - SHN > WAV > Rename > FLAC

Disc 1: Set 1: 
01. The Take Out > 
02. Space Wrangler > 
03. Stop-Go > 
04. Weight Of The World
05. Who Do You Belong To? > 
06. Proving Ground > 
07. Do What You Like > 
08. Proving Ground 

Disc 2: Set 2: 
01. Don't Be Denied > 
02. Porch Song > 
03. Bowlegged Woman, 
04. Driving Song > 
05. I Walk On Guilded Splinters > 
06. Drums >

Disc 3: Set 2 con't:
01. Drums > Drums & Bass
02. Driving Song > 
03. Hatfield > 
04. One Arm Steve > 
05. Travelin' Light 
Encore: 
06. Contentment Blues
07. Postcard 

[Set 1 stopped due to lightning storm; 'We Want The Funk' jam during 'Bowlegged Woman';
 Soundcheck: 'She Caught The Katy', 'Worry']

wsp2001-06-19d1t01.flac:dbccdef0d1650f418d8342d05de54af9
wsp2001-06-19d1t02.flac:2c9cbcb9b4f640d36afb3eb1d505e1ad
wsp2001-06-19d1t03.flac:fdd7cf0734d4a2c29c930e7c2ac40b38
wsp2001-06-19d1t04.flac:54b102346d9a6b06a4e7b58ed8fd6401
wsp2001-06-19d1t05.flac:3bf018820ffe8b4d4fcf12e276923667
wsp2001-06-19d1t06.flac:e7ef289c6b11ef3fefb4e747765d0d79
wsp2001-06-19d1t07.flac:776627c4d65dd50fad16fa57544ec6c0
wsp2001-06-19d1t08.flac:462906dd8e7c51aa24789067fe2bcc62
wsp2001-06-19d2t01.flac:2a3020ec28f5333f059b1aa798d53eb8
wsp2001-06-19d2t02.flac:a6f678aa4f9f628e6ae194bf8f88270a
wsp2001-06-19d2t03.flac:90731875d43996c79194b75e6c9c4bad
wsp2001-06-19d2t04.flac:b1130d0e495c52f96999f76b6dfe5a12
wsp2001-06-19d2t05.flac:6d2c484d9f4f9a27c92081ba1c78362c
wsp2001-06-19d2t06.flac:27358f7c12a3251c5f5c2564baaa10ea
wsp2001-06-19d3t01.flac:524af402daf03a1b25dd9c6faced35dc
wsp2001-06-19d3t02.flac:c4c30a2e407c958d0971abe8275fa79f
wsp2001-06-19d3t03.flac:85ae408439b2cf23e3d0d1e6ebf4a2f1
wsp2001-06-19d3t04.flac:fc93e42649aa4c111e6704c3b71fa4de
wsp2001-06-19d3t05.flac:77edd73d0d089728432e927bbbf136cb
wsp2001-06-19d3t06.flac:17df826614096764120910ccb118ccc8
wsp2001-06-19d3t07.flac:f533946b04ba44e8e76749f789093c07

length     expanded size    cdr  WAVE problems  fmt   ratio  filename
     4:24.04       46579052 B   ---   --   -----    wav  1.0000  wsp2001-06-19d1t01.wav
     8:44.37       92520668 B   ---   --   -----    wav  1.0000  wsp2001-06-19d1t02.wav
     9:55.49      105073292 B   ---   --   -----    wav  1.0000  wsp2001-06-19d1t03.wav
     6:26.48       68203340 B   ---   --   -----    wav  1.0000  wsp2001-06-19d1t04.wav
     4:51.27       51395948 B   ---   --   -----    wav  1.0000  wsp2001-06-19d1t05.wav
     5:34.49       59032892 B   ---   --   -----    wav  1.0000  wsp2001-06-19d1t06.wav
     6:46.61       71761916 B   ---   --   -----    wav  1.0000  wsp2001-06-19d1t07.wav
     2:05.68       22209980 B   ---   --   -----    wav  1.0000  wsp2001-06-19d1t08.wav
     5:36.51       59390396 B   ---   --   -----    wav  1.0000  wsp2001-06-19d2t01.wav
     9:33.33      101154860 B   ---   --   -----    wav  1.0000  wsp2001-06-19d2t02.wav
     8:53.73       94192940 B   ---   --   -----    wav  1.0000  wsp2001-06-19d2t03.wav
     3:56.70       41795084 B   ---   --   -----    wav  1.0000  wsp2001-06-19d2t04.wav
    12:20.47      130646588 B   ---   --   -----    wav  1.0000  wsp2001-06-19d2t05.wav
     4:19.64       45838172 B   ---   --   -----    wav  1.0000  wsp2001-06-19d2t06.wav
    19:24.00      205329644 B   ---   --   -----    wav  1.0000  wsp2001-06-19d3t01.wav
     2:40.62       28369868 B   ---   --   -----    wav  1.0000  wsp2001-06-19d3t02.wav
    10:02.25      106251644 B   ---   --   -----    wav  1.0000  wsp2001-06-19d3t03.wav
     3:06.72       32979788 B   ---   --   -----    wav  1.0000  wsp2001-06-19d3t04.wav
    10:33.61      111804716 B   ---   --   -----    wav  1.0000  wsp2001-06-19d3t05.wav
     4:53.24       51741692 B   ---   --   -----    wav  1.0000  wsp2001-06-19d3t06.wav
     5:12.39       55128572 B   ---   --   -----    wav  1.0000  wsp2001-06-19d3t07.wav
   149:24.64     1581401052 B                            1.0000  (21 files)





More information about the bittorrent mailing list