[bittorrent] Billy Goodspeed Solo Acoustic Brimfield Antique Show Brimfield, Massachusetts 5/18/2019 (Schoeps MK4V'S FOB)

Automated Mailer noreply-bt.e at etree.org
Wed Jun 5 17:27:19 UTC 2019


Band:           Other
Torrent Name:   Billy Goodspeed Solo Acoustic  Brimfield Antique Show Brimfield, Massachusetts 5/18/2019 (Schoeps MK4V'S FOB)
Uploaded by:    zmanatl
DB Link:        
Details:        http://bt.etree.org/details.php?id=605673

Contact the seeder at http://db.etree.org/zmanatl

If the link to this show does not work, it was probably removed for
being non-trade-friendly.

Description / text file:
-------------------------
Billy Goodspeed Solo Acoustic 
Brimfield Antique Show
Brimfield, Massachusetts
5/18/2019 

Source: Schoeps MK4V'S>CMC6>Lunatec V2>Sound Devices 722 (24/44.1)
FOB/DFC/KFC/ZFC/AARP Stage Lip, 6 1/2' High
DSP: Sound Devices 722>Sound Forge 10.0>CD Wave>flac(16)
ID3 Tagged In Foobar 2000
Recorded By: Z-Man
Seeded By: Z-Man 

Disc I 1st Set

01 Sweet Baby James
02 Fire And Rain
03 Peaceful Easy Feeling
04 Mr. BoJangles
05 Take It Easy
06 Aimee >
07 Fallin' In And Out Of Love 
08 Teach Your Children

Disc II 2nd Set

01 Folsum Prison Blues 
02 Goin' Down The Road Feelin' Bad >
03 Friend Of The Devil 
04 Old Man
05 Sirens
06 ?
07 Sunshine
08 The Weight
09 I Know You Rider >
10 Love he One You're With
11 Little Red Rooster
12 American Pie

Disc III 3rd Set 

01 Run For Cover >
02 Turn The Page >
03 Locomotive Breath
04 Wish You Were Here 
05 Sympathy For The Devil >
06 Love Me Two Times
07 Last Dance With Mary Jane >
08 Breakdown >
09 Southern Cross >
10 Helpless
11 Pride And Joy

billy2019-05-18d01t01.flac:bb3d84aa402b6a4980064098bbf71b33
billy2019-05-18d01t02.flac:e4eb6c33b575cb4480fc49cba5200ce8
billy2019-05-18d01t03.flac:3310173021e4858e9ea970643e1e39a2
billy2019-05-18d01t04.flac:4fc300756cc37f63d5d48798bfa72922
billy2019-05-18d01t05.flac:8d360166a32fe6fca4db150249c9ef8d
billy2019-05-18d01t06.flac:2f6b8490aa37a880cb429e2fe6eb7522
billy2019-05-18d01t07.flac:bb3920e0b83931e7404d56f2e977334c
billy2019-05-18d01t08.flac:ebe600fcb21918bf255890d0027be5b0
billy2019-05-18d02t01.flac:30db90fe41579ef9cbd2963fa1825e20
billy2019-05-18d02t02.flac:0f7c072ad072b94ed72444405823583b
billy2019-05-18d02t03.flac:3041f13fe15a095acc7fc02984aacda4
billy2019-05-18d02t04.flac:56fc4b093b35258fd34a0a15f98cbac9
billy2019-05-18d02t05.flac:acf12b495e4fb1ec592294174bb9717f
billy2019-05-18d02t06.flac:5f6bd7a6de65436387e0e5eafda97512
billy2019-05-18d02t07.flac:881cf64e2dbcf8dbdeb6cdb94154c2fb
billy2019-05-18d02t08.flac:70aa19740ede0daca6da86e78f92d7e6
billy2019-05-18d02t09.flac:8a8ba5e94df11a6b4f7a68530b65e915
billy2019-05-18d02t10.flac:01dbbddfcd688315c49fc349227ace94
billy2019-05-18d02t11.flac:ffe2a8bd76fd3bb511bfe1a96d48c2db
billy2019-05-18d02t12.flac:c19438033b2e375e5b4655c108f8b609
billy2019-05-18d03t01.flac:868ef7e757f575e142ec3092d2c69b2a
billy2019-05-18d03t02.flac:432bd8260036828d7015f3d344b2a95b
billy2019-05-18d03t03.flac:940528ffedbe68d0e09e017f44fdc582
billy2019-05-18d03t04.flac:90626225d8543877f799ded37906a7de
billy2019-05-18d03t05.flac:ba4e03e689473d6b250bab0facd5d4dc
billy2019-05-18d03t06.flac:fdf551c3308dee0295aaf4e37f537e5d
billy2019-05-18d03t07.flac:53e57be66ecc73ec2351f5cd9aacec36
billy2019-05-18d03t08.flac:5b771c7f5a0f6c0aa8389eab2ee11efe
billy2019-05-18d03t09.flac:6e1eb04a34f888f33534f29af610d938
billy2019-05-18d03t10.flac:7f3077bd6d9275444daa138c51c7662a
billy2019-05-18d03t11.flac:0e781c017b429245c3064a507c4d9905

 length     expanded size    cdr  WAVE problems  fmt   ratio  filename
     3:06.40       32904524 B   ---   --   ---xx   flac  0.3670  billy2019-05-18d01t01.flac
     3:45.05       39701804 B   ---   --   ---xx   flac  0.3872  billy2019-05-18d01t02.flac
     3:32.17       37436828 B   ---   --   ---xx   flac  0.4201  billy2019-05-18d01t03.flac
     4:08.31       43820156 B   ---   --   ---xx   flac  0.3816  billy2019-05-18d01t04.flac
     3:38.02       38459948 B   ---   --   ---xx   flac  0.4205  billy2019-05-18d01t05.flac
     3:18.09       34948412 B   ---   --   ---xx   flac  0.4150  billy2019-05-18d01t06.flac
     1:02.48       11049740 B   ---   --   ---xx   flac  0.3299  billy2019-05-18d01t07.flac
     3:09.01       33341996 B   ---   --   ---xx   flac  0.3443  billy2019-05-18d01t08.flac
     3:23.46       35917436 B   ---   --   ---xx   flac  0.4268  billy2019-05-18d02t01.flac
     2:31.69       26798732 B   ---   --   ---xx   flac  0.3897  billy2019-05-18d02t02.flac
     4:22.67       46374428 B   ---   --   ---xx   flac  0.3684  billy2019-05-18d02t03.flac
     4:34.10       48357164 B   ---   --   ---xx   flac  0.3619  billy2019-05-18d02t04.flac
     4:07.07       43587308 B   ---   --   ---xx   flac  0.4227  billy2019-05-18d02t05.flac
     4:51.22       51384188 B   ---   --   ---xx   flac  0.4170  billy2019-05-18d02t06.flac
     2:26.42       25853228 B   ---   --   ---xx   flac  0.4054  billy2019-05-18d02t07.flac
     5:25.59       57468812 B   ---   --   ---xx   flac  0.3896  billy2019-05-18d02t08.flac
     4:45.64       50424572 B   ---   --   ---xx   flac  0.3494  billy2019-05-18d02t09.flac
     4:28.04       47284652 B   ---   --   ---xx   flac  0.4305  billy2019-05-18d02t10.flac
     4:00.14       42368972 B   ---   --   ---xx   flac  0.3845  billy2019-05-18d02t11.flac
     6:26.02       68095148 B   ---   --   ---xx   flac  0.3862  billy2019-05-18d02t12.flac
     4:01.35       42594764 B   ---   --   ---xx   flac  0.3824  billy2019-05-18d03t01.flac
     5:35.65       59246924 B   ---   --   ---xx   flac  0.4046  billy2019-05-18d03t02.flac
     3:40.12       38836268 B   ---   --   ---xx   flac  0.4228  billy2019-05-18d03t03.flac
     5:37.12       59475068 B   ---   --   ---xx   flac  0.3325  billy2019-05-18d03t04.flac
     6:30.66       68951276 B   ---   --   ---xx   flac  0.4077  billy2019-05-18d03t05.flac
     4:12.27       44516348 B   ---   --   ---xx   flac  0.3729  billy2019-05-18d03t06.flac
     4:38.32       49114508 B   ---   --   ---xx   flac  0.3985  billy2019-05-18d03t07.flac
     2:32.26       26873996 B   ---   --   ---xx   flac  0.4121  billy2019-05-18d03t08.flac
     5:30.68       58371980 B   ---   --   ---xx   flac  0.4155  billy2019-05-18d03t09.flac
     4:48.00       50803244 B   ---   --   ---xx   flac  0.3366  billy2019-05-18d03t10.flac
     1:58.60       20956364 B   ---   --   ---xx   flac  0.4491  billy2019-05-18d03t11.flac
   126:09.62     1335318788 B                            0.3908  (31 files)





More information about the bittorrent mailing list