[bittorrent] Barry Richman Trio Dixie Tavern Marietta, Georgia 6/3/2019 (Schoeps MK4V'S FOB)

Automated Mailer noreply-bt.e at etree.org
Wed Jun 5 13:01:53 UTC 2019


Band:           Other
Torrent Name:   Barry Richman Trio  Dixie Tavern Marietta, Georgia 6/3/2019 (Schoeps MK4V'S FOB)
Uploaded by:    zmanatl
DB Link:        
Details:        http://bt.etree.org/details.php?id=605671

Contact the seeder at http://db.etree.org/zmanatl

If the link to this show does not work, it was probably removed for
being non-trade-friendly.

Description / text file:
-------------------------
Barry Richman Trio 
Dixie Tavern
Marietta, Georgia
6/3/2019 

Source: Schoeps MK4V'S>CMC6>Lunatec V2>Sound Devices 722 (24/44.1)
FOB/DFC/KFC/ZFC/AARP 12' From Stage, 6 1/2' High
DSP: Sound Devices 722>Sound Forge 10.0>CD Wave>flac(16)
ID3 Tagged In Foobar 2000
Recorded By: Z-Man
Seeded By: Z-Man 

Disc I 

01 Greeting
02 Further On Up The Road
03 Sarah Smile
04 Ain't No Love In The Heart Of The City
05 Band Introductions/Merchandise Push
06 Little Wing

Barry Richman - Guitar
Renard Clark - Bass And Vocals
Bill Diehl - Drums

barry2019-06-03d01t01.flac:87b424a4cd818b9beb8649a5fc58e5ba
barry2019-06-03d01t02.flac:3f331e5a68c3708427d4b7b4725dd503
barry2019-06-03d01t03.flac:76585440175b35cfe23f63e795d5b1bd
barry2019-06-03d01t04.flac:dcebd0932e1fcd63c9aec3faa078f99e
barry2019-06-03d01t05.flac:a863bf510156e1865f3b8ee0ff55d77c
barry2019-06-03d01t06.flac:13eac1e3cb9855cbe2c204e3bedc3775

 length     expanded size    cdr  WAVE problems  fmt   ratio  filename
     1:21.35       14370764 B   ---   --   ---xx   flac  0.3536  barry2019-06-03d01t01.flac
     7:29.20       79250684 B   ---   --   ---xx   flac  0.4539  barry2019-06-03d01t02.flac
     4:48.43       50904380 B   ---   --   ---xx   flac  0.4828  barry2019-06-03d01t03.flac
     7:35.29       80330252 B   ---   --   ---xx   flac  0.5341  barry2019-06-03d01t04.flac
     3:29.15       36902924 B   ---   --   ---xx   flac  0.3448  barry2019-06-03d01t05.flac
     8:02.35       85107164 B   ---   --   ---xx   flac  0.4404  barry2019-06-03d01t06.flac
    32:46.27      346866168 B                            0.4576  (6 files)




More information about the bittorrent mailing list