[bittorrent] Billy Goodspeed Solo Acoustic Brimfield Antique Show Brimfield, Massachusetts 5/16/2019 (Schoeps MK4V'S FOB)

Automated Mailer noreply-bt.e at etree.org
Wed Jun 5 03:37:00 UTC 2019


Band:           Other
Torrent Name:   Billy Goodspeed Solo Acoustic  Brimfield Antique Show Brimfield, Massachusetts 5/16/2019 (Schoeps MK4V'S FOB)
Uploaded by:    zmanatl
DB Link:        
Details:        http://bt.etree.org/details.php?id=605667

Contact the seeder at http://db.etree.org/zmanatl

If the link to this show does not work, it was probably removed for
being non-trade-friendly.

Description / text file:
-------------------------
Billy Goodspeed Solo Acoustic 
Brimfield Antique Show
Brimfield, Massachusetts
5/16/2019 

Source: Schoeps MK4V'S>CMC6>Lunatec V2>Sound Devices 722 (24/44.1)
FOB/DFC/KFC/ZFC/AARP Stage Lip, 6 1/2' High
DSP: Sound Devices 722>Sound Forge 10.0>CD Wave>flac(16)
ID3 Tagged In Foobar 2000
Recorded By: Z-Man
Seeded By: Z-Man 

Disc I 1st Set

01 Wooden Ships
02 Last Dance With Mary Jane
03 Red House
04 Bad Bad Leroy Brown
05 Shanty
06 Dreams Come True
07 Teach Your Children
08 Peaceful Easy Feeling
09 Son Of A Sailor >
10 Sunshine
11 Cats In The Cradle
12 Mr. BoJangles
13 Take It Easy
14 Wish You Were Here
15 ? >
16 Locomotive Breath

Disc II 2nd Set

01 Friend Of The Devil 
02 Long-Haired Country Boy 
03 Aimee >
04 Fallin' In And Out Of Love 
05 Fire And Rain 
06 I Know You Rider >
07 Love The One You're With 
08 Norwegian Wood >
09 Rocky Racoon 
10 Sirens
11 Little Red Rooster
12 Me And Bobby McGee
13 Mercedes Benz
14 Folsom Prison Blues >
15 Love Me Two Times
16 Old Man
17 Sugar Mountain 

Disc III 3rd Set

01 American Pie 
02 I Can See Clearly Now >
03 Under The Boardwalk
04 Run For Cover
05 Kansas City
06 Southern Cross
07 Moon Shadow
08 Wild World
09 Can't You See >
10 Goin' Down The Road Feelin' Bad >
11 Not Fade Away 

billy2019-05-16d01t01.flac:9b336a1d293b38b1a436a5db9d8bdb77
billy2019-05-16d01t02.flac:4e9801b4b0ed8ce7d46c544e93792bef
billy2019-05-16d01t03.flac:c50e3df56a98a53c672e9a441a91729d
billy2019-05-16d01t04.flac:d4a2d51d3377977b236a14ce3eb497eb
billy2019-05-16d01t05.flac:c9d7e190377310716e6900b76d1c0a80
billy2019-05-16d01t06.flac:b9700a5c104d42ca0eb4661acedc11b6
billy2019-05-16d01t07.flac:007faf7062f28b99ebf774086e3ac416
billy2019-05-16d01t08.flac:083a65b548b80780abb64c0fe616532b
billy2019-05-16d01t09.flac:4b61dc0ee2385eecf33512e2e7a790fd
billy2019-05-16d01t10.flac:267808dc90f8480beb66b5bafb1dc48c
billy2019-05-16d01t11.flac:e9ec11dc40a7eea749a1aa674b8e0300
billy2019-05-16d01t12.flac:6b4670a3837fe80b1bce9a95ba889715
billy2019-05-16d01t13.flac:3160e52c794d9705f68d100006b76451
billy2019-05-16d01t14.flac:09932b589fbfdbbfeca8dd1ae0ccb34c
billy2019-05-16d01t15.flac:b7213fdd25b6e1fdac48c203035e7f5f
billy2019-05-16d01t16.flac:a91bbf0584ccfb4f3f8ccbea4aa14541
billy2019-05-16d02t01.flac:ea6666cb0d231249c0cfa41b125306a1
billy2019-05-16d02t02.flac:1d12910e4e4afceb9ad2b3bacc47d8fb
billy2019-05-16d02t03.flac:f765c5b0b7b53d80a9347d6ed2cd5b03
billy2019-05-16d02t04.flac:815ae138832f3a531a106d3e94a408a8
billy2019-05-16d02t05.flac:18d77d53dda9c9726f5bfd72ea26dc8e
billy2019-05-16d02t06.flac:46ab9240b5ca32ffca18f05d99277ab6
billy2019-05-16d02t07.flac:075290cd122ddd1db4d2546d39e2d4f8
billy2019-05-16d02t08.flac:1674e990de2482f8ff4527a7add09fb7
billy2019-05-16d02t09.flac:ee8d57380346be794e8899277d8fa0cc
billy2019-05-16d02t10.flac:64e2e6dd809cfe56417f544f18cbf2d8
billy2019-05-16d02t11.flac:ae6aba4a28496c37c32af9ba7aad88a6
billy2019-05-16d02t12.flac:54e913b511dd60263e910c6a194329a7
billy2019-05-16d02t13.flac:b825d298c3c8e2a1fde19cb98f2a389b
billy2019-05-16d02t14.flac:b1922bc6bfeae94c21d4ebe10d9cf5a6
billy2019-05-16d02t15.flac:cb5b5817e0b826814129b03020b4215c
billy2019-05-16d02t16.flac:3800564bbdf42ccf476ada68f31b28e3
billy2019-05-16d02t17.flac:af66a252922496234fdf1f0ab145237a
billy2019-05-16d03t01.flac:b49083c3e1c16e9b761f81615068ed4b
billy2019-05-16d03t02.flac:90bd76316e54e689b17280fd7b192aea
billy2019-05-16d03t03.flac:9f4be1a225821562053f281e66dcdff2
billy2019-05-16d03t04.flac:0aba19e5ecbfd19938f816b30cc6a7ab
billy2019-05-16d03t05.flac:31120bc7d2456cf5faf9784125fbf3c5
billy2019-05-16d03t06.flac:08c74bca9b07381b7ad3175109d5bd64
billy2019-05-16d03t07.flac:dc742a216d04d75587c7f4ebc158c169
billy2019-05-16d03t08.flac:ba96e295468e693be433f878a99fe03d
billy2019-05-16d03t09.flac:5a4a84acb9ab87509dbb019d4486a610
billy2019-05-16d03t10.flac:b687def7ec3e63f1a7a3210dc51e2896
billy2019-05-16d03t11.flac:57f74d3c86718ea710d7b9d4f12a62b1

 length     expanded size    cdr  WAVE problems  fmt   ratio  filename
     4:57.74       52564892 B   ---   --   ---xx   flac  0.3469  billy2019-05-16d01t01.flac
     3:47.61       40186316 B   ---   --   ---xx   flac  0.4137  billy2019-05-16d01t02.flac
     4:17.14       45367772 B   ---   --   ---xx   flac  0.3015  billy2019-05-16d01t03.flac
     3:08.09       33184412 B   ---   --   ---xx   flac  0.4007  billy2019-05-16d01t04.flac
     1:44.49       18460892 B   ---   --   ---xx   flac  0.3941  billy2019-05-16d01t05.flac
     3:56.54       41757452 B   ---   --   ---xx   flac  0.4499  billy2019-05-16d01t06.flac
     3:08.21       33212636 B   ---   --   ---xx   flac  0.3416  billy2019-05-16d01t07.flac
     3:29.04       36877052 B   ---   --   ---xx   flac  0.3863  billy2019-05-16d01t08.flac
     3:34.58       37886060 B   ---   --   ---xx   flac  0.3846  billy2019-05-16d01t09.flac
     2:09.54       22882652 B   ---   --   ---xx   flac  0.4218  billy2019-05-16d01t10.flac
     4:09.44       44027132 B   ---   --   ---xx   flac  0.3710  billy2019-05-16d01t11.flac
     3:50.57       40706108 B   ---   --   ---xx   flac  0.3860  billy2019-05-16d01t12.flac
     3:31.28       37286300 B   ---   --   ---xx   flac  0.4347  billy2019-05-16d01t13.flac
     2:51.61       30307916 B   ---   --   ---xx   flac  0.3917  billy2019-05-16d01t14.flac
     3:19.34       35183612 B   ---   --   ---xx   flac  0.4018  billy2019-05-16d01t15.flac
     3:01.49       32043692 B   ---   --   ---xx   flac  0.4793  billy2019-05-16d01t16.flac
     4:56.29       52282652 B   ---   --   ---xx   flac  0.3952  billy2019-05-16d02t01.flac
     3:01.44       32031932 B   ---   --   ---xx   flac  0.4013  billy2019-05-16d02t02.flac
     3:08.56       33294956 B   ---   --   ---xx   flac  0.4301  billy2019-05-16d02t03.flac
     0:49.02        8648348 B   ---   --   ---xx   flac  0.3827  billy2019-05-16d02t04.flac
     4:19.04       45697052 B   ---   --   ---xx   flac  0.3678  billy2019-05-16d02t05.flac
     4:16.03       45165500 B   ---   --   ---xx   flac  0.4013  billy2019-05-16d02t06.flac
     3:58.52       42105548 B   ---   --   ---xx   flac  0.4630  billy2019-05-16d02t07.flac
     2:05.31       22122956 B   ---   --   ---xx   flac  0.3983  billy2019-05-16d02t08.flac
     3:55.40       41548124 B   ---   --   ---xx   flac  0.4024  billy2019-05-16d02t09.flac
     3:57.53       41931500 B   ---   --   ---xx   flac  0.4258  billy2019-05-16d02t10.flac
     3:14.54       34348652 B   ---   --   ---xx   flac  0.4009  billy2019-05-16d02t11.flac
     3:49.17       40435628 B   ---   --   ---xx   flac  0.3917  billy2019-05-16d02t12.flac
     1:55.65       20438924 B   ---   --   ---xx   flac  0.3427  billy2019-05-16d02t13.flac
     4:13.73       44800940 B   ---   --   ---xx   flac  0.4399  billy2019-05-16d02t14.flac
     3:26.36       36423116 B   ---   --   ---xx   flac  0.4245  billy2019-05-16d02t15.flac
     3:35.50       38043644 B   ---   --   ---xx   flac  0.3982  billy2019-05-16d02t16.flac
     5:19.64       56422172 B   ---   --   ---xx   flac  0.3747  billy2019-05-16d02t17.flac
     6:43.66       71244476 B   ---   --   ---xx   flac  0.3819  billy2019-05-16d03t01.flac
     2:39.42       28146428 B   ---   --   ---xx   flac  0.3855  billy2019-05-16d03t02.flac
     3:19.69       35265932 B   ---   --   ---xx   flac  0.3920  billy2019-05-16d03t03.flac
     5:28.00       57859244 B   ---   --   ---xx   flac  0.3654  billy2019-05-16d03t04.flac
     3:22.24       35689292 B   ---   --   ---xx   flac  0.4052  billy2019-05-16d03t05.flac
     5:22.20       56847884 B   ---   --   ---xx   flac  0.4236  billy2019-05-16d03t06.flac
     3:10.43       33617180 B   ---   --   ---xx   flac  0.3854  billy2019-05-16d03t07.flac
     3:50.50       40689644 B   ---   --   ---xx   flac  0.3776  billy2019-05-16d03t08.flac
     5:31.58       58524860 B   ---   --   ---xx   flac  0.3714  billy2019-05-16d03t09.flac
     2:14.46       23745836 B   ---   --   ---xx   flac  0.3845  billy2019-05-16d03t10.flac
     2:45.21       29155436 B   ---   --   ---xx   flac  0.4234  billy2019-05-16d03t11.flac
   159:31.58     1688462752 B                            0.3953  (44 files)






More information about the bittorrent mailing list