[bittorrent] Harvest Moon City Winery Atlanta, Georgia 6/2/2019 (Schoeps MK4V'S)

Automated Mailer noreply-bt.e at etree.org
Mon Jun 3 14:16:04 UTC 2019


Band:           Other
Torrent Name:   Harvest Moon City Winery Atlanta, Georgia 6/2/2019 (Schoeps MK4V'S)
Uploaded by:    zmanatl
DB Link:        
Details:        http://bt.etree.org/details.php?id=605657

Contact the seeder at http://db.etree.org/zmanatl

If the link to this show does not work, it was probably removed for
being non-trade-friendly.

Description / text file:
-------------------------
Harvest Moon
City Winery
Atlanta, Georgia
6/2/2019 

Source: Schoeps MK4V'S>CMC6>Lunatec V2>Sound Devices 722 (24/44.1)
SOB/DFC/KFC/ZFC/AARP 38' From Stage, 6 1/2' High
DSP: Sound Devices 722>Sound Forge 10.0>CD Wave>flac(16)
ID3 Tagged In Foobar 2000
Recorded By: Z-Man
Seeded By: Z-Man 

Disc I 

01 City Winery Announcement/Greeting 
02 Powderfinger
03 Ohio
04 Down By The River
05 Helpless
06 Southern Cross
07 Heart Of Gold
08 Only Love Can Break Your Heart
09 *Comes A Time
10 *Long May You Run
11 Harvest Moon
12 Cinnamon Girl
13 #After The Gold Rush

Disc II 

01 For What It's Worth
02 Don't Let It Bring You Down
03 Jokes/Banter
04 Woodstock
05 @Alabama
06 @^Teach Your Children
07 @Old Man
08 MY My Hey Hey
09 Like A Hurricane
10 Band Introductions
11 Love The One You're With
12 The Needle And The Damage Done
13 Southern Man
14 Keep On Rockin' In The Free World

* With Michael Chapman On Violin
# With Jason Dunn On French Horn
@ With Christopher Alan Yates On Banjo
^ First Time Played

Rod Gunther - Guitar
Henry Davis - Keyboards And Vocals
Grant Reynolds - Guitar And Vocals
Meg Scalise - Vocals And Percussion
Mark Van Allen - Pedal Steel Guitar
Wade Carreker - Bass And Vocals
Brad Berry - Drums

harvest2019-06-02d01t01.flac:cfea56584552d20b3be8efdc5c34f977
harvest2019-06-02d01t02.flac:5ccf8cd98ee1e23c2d1317eb7585f262
harvest2019-06-02d01t03.flac:ec1761992ef5a3260c9fb1987adeb0b4
harvest2019-06-02d01t04.flac:d7fbb8dcc9c99caff32668646af25887
harvest2019-06-02d01t05.flac:eccefa770493b5d12fbee925213b2b36
harvest2019-06-02d01t06.flac:da13e2d4c93ab5e2d026ccbd9fba8442
harvest2019-06-02d01t07.flac:107d983722b66f6e8a191cfb29459494
harvest2019-06-02d01t08.flac:1eac2efd00dde0e0c81734290ce5358a
harvest2019-06-02d01t09.flac:96e1598b215046784bae287a155a22b0
harvest2019-06-02d01t10.flac:628841240557377cbf830b4f141ac9d9
harvest2019-06-02d01t11.flac:7fd9cd03a5d85ec65f27e68bcde4a568
harvest2019-06-02d01t12.flac:3531858084e505ea6d0b8ac3182da419
harvest2019-06-02d01t13.flac:9247a124d9323271ef7277c32bc506f2
harvest2019-06-02d02t01.flac:1f103a1b7a7752c2a91dcee0e4569f7d
harvest2019-06-02d02t02.flac:fed680759ea7c4a95d7e931e4a2f19cf
harvest2019-06-02d02t03.flac:cb99b33150d26f3820bb27e07c578df4
harvest2019-06-02d02t04.flac:4ac20b018a3dcefce191e0065f33b83f
harvest2019-06-02d02t05.flac:3124b8ff375c21182e5e0c3f3636c574
harvest2019-06-02d02t06.flac:8ab4895e5b3c7f756352e2d0a1907607
harvest2019-06-02d02t07.flac:4edf78bae47f7961a5e99cd4215fa37d
harvest2019-06-02d02t08.flac:4fbb7f0dba4281f9ee47eae78b67eec7
harvest2019-06-02d02t09.flac:52bcd3d02133161f55107bd7750f82ea
harvest2019-06-02d02t10.flac:a8c0232e8d2e61ea54959ae577725d7f
harvest2019-06-02d02t11.flac:49e3bec9e85e17969e01eb49e144177d
harvest2019-06-02d02t12.flac:c06b637690e8b6dab093969c6a67319d
harvest2019-06-02d02t13.flac:6597e4af1fd8145fc19cc94e985e50f3
harvest2019-06-02d02t14.flac:762dbb432da504513d97a47c706fca65

 length     expanded size    cdr  WAVE problems  fmt   ratio  filename
     0:48.29        8535452 B   ---   --   ---xx   flac  0.4013  harvest2019-06-02d01t01.flac
     5:26.32       57581708 B   ---   --   ---xx   flac  0.5590  harvest2019-06-02d01t02.flac
     3:48.56       40350956 B   ---   --   ---xx   flac  0.5127  harvest2019-06-02d01t03.flac
    10:01.54      106143452 B   ---   --   ---xx   flac  0.5130  harvest2019-06-02d01t04.flac
     4:22.41       46313276 B   ---   --   ---xx   flac  0.4389  harvest2019-06-02d01t05.flac
     5:31.49       58503692 B   ---   --   ---xx   flac  0.5133  harvest2019-06-02d01t06.flac
     3:43.62       39483068 B   ---   --   ---xx   flac  0.4910  harvest2019-06-02d01t07.flac
     4:19.00       45687644 B   ---   --   ---xx   flac  0.4707  harvest2019-06-02d01t08.flac
     3:32.42       37495628 B   ---   --   ---xx   flac  0.4912  harvest2019-06-02d01t09.flac
     5:55.46       62730236 B   ---   --   ---xx   flac  0.5001  harvest2019-06-02d01t10.flac
     5:35.29       59162252 B   ---   --   ---xx   flac  0.4606  harvest2019-06-02d01t11.flac
     4:28.21       47324636 B   ---   --   ---xx   flac  0.5449  harvest2019-06-02d01t12.flac
     4:19.14       45720572 B   ---   --   ---xx   flac  0.3390  harvest2019-06-02d01t13.flac
     5:17.02       55923548 B   ---   --   ---xx   flac  0.4322  harvest2019-06-02d02t01.flac
     3:11.47       33802988 B   ---   --   ---xx   flac  0.4504  harvest2019-06-02d02t02.flac
     1:11.16       12562076 B   ---   --   ---xx   flac  0.3268  harvest2019-06-02d02t03.flac
     4:26.12       46950668 B   ---   --   ---xx   flac  0.5702  harvest2019-06-02d02t04.flac
     5:07.14       54187772 B   ---   --   ---xx   flac  0.4857  harvest2019-06-02d02t05.flac
     3:43.64       39487772 B   ---   --   ---xx   flac  0.4259  harvest2019-06-02d02t06.flac
     4:24.10       46593164 B   ---   --   ---xx   flac  0.4419  harvest2019-06-02d02t07.flac
     4:51.71       51499436 B   ---   --   ---xx   flac  0.3976  harvest2019-06-02d02t08.flac
     6:19.21       66905036 B   ---   --   ---xx   flac  0.5453  harvest2019-06-02d02t09.flac
     0:54.02        9530348 B   ---   --   ---xx   flac  0.3837  harvest2019-06-02d02t10.flac
     4:21.65       46193324 B   ---   --   ---xx   flac  0.4314  harvest2019-06-02d02t11.flac
     3:01.23       31982540 B   ---   --   ---xx   flac  0.3840  harvest2019-06-02d02t12.flac
     5:03.52       53571548 B   ---   --   ---xx   flac  0.5685  harvest2019-06-02d02t13.flac
     6:07.20       64785884 B   ---   --   ---xx   flac  0.5665  harvest2019-06-02d02t14.flac
   119:53.69     1269008676 B                            0.4841  (27 files)






More information about the bittorrent mailing list