[bittorrent] gd1982-09-14.146663.beyer.tompkins.flac2448

Automated Mailer noreply-bt.e at etree.org
Sun Jun 2 23:08:54 UTC 2019


Band:           Grateful Dead
Torrent Name:   gd1982-09-14.146663.beyer.tompkins.flac2448
Uploaded by:    nfagdtrfb
DB Link:        
Details:        http://bt.etree.org/details.php?id=605651

Contact the seeder at http://db.etree.org/nfagdtrfb

If the link to this show does not work, it was probably removed for
being non-trade-friendly.

Description / text file:
-------------------------
GRATEFUL DEAD
University Hall UVA
Charlottesville VA
09-14-1982

s1t01 Jack Straw
s1t02 Peggy-O >
s1t03 C.C. Rider
s1t04 Big Railroad Blues
s1t05 El Paso
s1t06 Birdsong
s1t07 Lazy Lightning > Supplication >
s1t08 Deal

s2t01 China Cat Sunflower >
s2t02 I Know You Rider
s2t03 Samson & Delilah
s2t04 High Time
s2t05 Estimated Prophet >
s2t06 He's Gone > Jam
xxxxx (Drums not recorded on MAC)
s2t07 Space >
s2t08 Iko Iko >
s2t09 Truckin' >
s2t10 Black Peter >
s2t11 I Need a Miracle >
s2t12 Bertha
s2t13 Encore: Johnny B. Goode

Source: FOB Beyers M88's > Sony TC-D5M > Maxell XLIIS-90 (1st 
Set, He's Gone, and JBGoode) and TDK MA-90 (2nd Set). Concert 
recording by Rip Tompkins, & with thanks to Richie Stankiewicz!

Transfer: MAC > Nakamichi CR-5A (Dolby-B in) > Edirol FA-66 > 
Wavelab 2448 > CD-Wave (24bit output) > TLH > FLAC 2448 tagged. 
Transferred by Andrew F. 06/2019

Note: Matches & upgrades the 1st Set recording found in ID-20906. 
LC crossfaded over RC: Samson 0:00 > 0:31, High Time 0:00 > 1:41. 
ID-121943 patches He's Gone 0:18 > 0:26, 4:57 > 5:03, 5:38 > 5:41.

    length     expanded size    cdr  WAVE problems  fmt   ratio  filename
     6:18.653     109052204 B   cxx   --   ---xx   flac  0.7540  gd1982-09-14s1t01.flac
     6:36.040     114059564 B   cxx   --   ---xx   flac  0.7365  gd1982-09-14s1t02.flac
     7:20.893     126977324 B   cxx   --   ---xx   flac  0.7502  gd1982-09-14s1t03.flac
     5:05.347      87939884 B   cxx   --   ---xx   flac  0.7609  gd1982-09-14s1t04.flac
     4:59.040      86123564 B   cxx   --   ---xx   flac  0.7436  gd1982-09-14s1t05.flac
     9:29.760     164090924 B   cxx   --   ---xx   flac  0.7472  gd1982-09-14s1t06.flac
    13:09.680     227427884 B   cxx   --   ---xx   flac  0.7536  gd1982-09-14s1t07.flac
     6:20.368     109545914 B   cxx   --   ---xx   flac  0.7667  gd1982-09-14s1t08.flac
     7:11.413     124247084 B   cxx   --   ---xx   flac  0.7724  gd1982-09-14s2t01.flac
     5:48.640     100408364 B   cxx   --   ---xx   flac  0.7818  gd1982-09-14s2t02.flac
     8:30.240     146949164 B   cxx   --   ---xx   flac  0.7799  gd1982-09-14s2t03.flac
     8:00.960     138516524 B   cxx   --   ---xx   flac  0.7261  gd1982-09-14s2t04.flac
    12:15.920     211945004 B   cxx   --   ---xx   flac  0.7536  gd1982-09-14s2t05.flac
    12:35.315     217530692 B   cxx   --   ---xx   flac  0.7357  gd1982-09-14s2t06.flac
     2:52.227      49601324 B   cxx   --   ---xx   flac  0.6936  gd1982-09-14s2t07.flac
     7:59.267     138028844 B   cxx   --   ---xx   flac  0.7565  gd1982-09-14s2t08.flac
     6:38.160     114670124 B   cxx   --   ---xx   flac  0.7715  gd1982-09-14s2t09.flac
     8:37.493     149038124 B   cxx   --   ---xx   flac  0.7399  gd1982-09-14s2t10.flac
     3:14.813      56106284 B   cxx   --   ---xx   flac  0.7729  gd1982-09-14s2t11.flac
     6:37.160     114382124 B   cxx   --   ---xx   flac  0.7736  gd1982-09-14s2t12.flac
     4:19.158      74637560 B   cxx   --   ---xx   flac  0.7635  gd1982-09-14s2t13.flac
   154:00.547    2661278478 B                            0.7539  (21 files)

No errors occured.




More information about the bittorrent mailing list