[bittorrent] WSP 2001-06-16 The Wiltern - Los Angeles, CA [FOB AKG 481 NEW]

Automated Mailer noreply-bt.e at etree.org
Sat Jun 1 02:14:55 UTC 2019


Band:           Widespread Panic
Torrent Name:   WSP 2001-06-16 The Wiltern - Los Angeles, CA [FOB AKG 481 NEW]
Uploaded by:    mfalcon
DB Link:        
Details:        http://bt.etree.org/details.php?id=605632

Contact the seeder at http://db.etree.org/mfalcon

If the link to this show does not work, it was probably removed for
being non-trade-friendly.

Description / text file:
-------------------------
--Transcoded to Flac from SHN in Xact and Tagged in Yate by Mike Falcon on 2018-11-06

Widespread Panic
06/16/01 
Wiltern Theatre
Los Angeles, CA

source:  FOB>AKG481(xy)>M-148>mod.SBM-1>DA-P1>D8>HHB>CD>EAC>SHN
EAC by Mark Misemer (ipanic2 at hotmail.com)

Set 1: Disc 1:
01. Chilly Water
02. Thought Sausage
03. Visiting Day > 
04. It Ain't No Use > 
05. Pigeons > 
06. Fishwater
07. This Part Of Town > 
08. Love Tractor > 
09. Give  

Set 2: Disc 2: 
01. Surprise Valley > 
02. Little Lilly > 
03. 1 x 1 > 
04. Pusherman > 
05. Drums* > 

Disc 3:
01. Drums & Bass > Jam >
02. Christmas Katie > 
03. Radio Child > 
04. Makes Sense To Me  
Encore: 
05. Goin' Out West
06. Ain't Life Grand  

* with Carrot Top on percussion

setlist thanks to http://everydaycompanion.com

244185a717424ff8578ff171210892a7 *wsp01-06-16d1t04.shn
678c0d5b471c664880e845aa3f64429e *wsp01-06-16d1t02.shn
6be6929c9d45940180d1518810842f18 *wsp01-06-16d1t03.shn
e0a149811e1203bac1e4fb21b1e8410c *wsp01-06-16d1t01.shn
608c5270a42330bc968430f2d94ac6cc *wsp01-06-16d1t05.shn
256cc8788006ad4e74db614758f3aed5 *wsp01-06-16d1t06.shn
31d4a61a514c3a8802665bdea18a4733 *wsp01-06-16d1t07.shn
7ab978be31e1551e5cae2354d89b62ab *wsp01-06-16d1t08.shn
21f87259ef245af1a36e7c68932e2c8f *wsp01-06-16d1t09.shn
1a924b5b7122f3de00d16253af8a55c8 *wsp01-06-16d2t01.shn
b79793255d4e5d1becb35ea751bd44b0 *wsp01-06-16d2t02.shn
7011ca667355a245a554104069241837 *wsp01-06-16d2t03.shn
c5be86bc7640e822cb37b9f97e309666 *wsp01-06-16d2t04.shn
38154808717c05fa0bf7e880a86c2a45 *wsp01-06-16d2t05.shn
7ac1183080be3bfcad9fd7ed35285b8f *wsp01-06-16d3t01.shn
5fd297024e2626503e07e8ce480d8a16 *wsp01-06-16d3t02.shn
8165d37534d7bcf346e7aee1d09be906 *wsp01-06-16d3t03.shn
81bb02fda47cc68e89215193ea65b244 *wsp01-06-16d3t04.shn
e28a5581164b1c8ed4d478f83a9e9e70 *wsp01-06-16d3t05.shn
cfcfa83511bc683cf07305ef35a85e7d *wsp01-06-16d3t06.shn

length     expanded size    cdr  WAVE problems  fmt   ratio  filename
     8:55.43       94475180 B   ---   --   ---xx    shn  0.6999  wsp01-06-16d1t01.shn
     5:30.34       58292012 B   ---   --   ---xx    shn  0.6924  wsp01-06-16d1t02.shn
    10:18.11      109041116 B   ---   --   ---xx    shn  0.6929  wsp01-06-16d1t03.shn
     8:43.17       92297228 B   ---   --   ---xx    shn  0.6764  wsp01-06-16d1t04.shn
    10:59.02      116252348 B   ---   --   ---xx    shn  0.7005  wsp01-06-16d1t05.shn
    10:52.50      115130444 B   ---   --   ---xx    shn  0.6963  wsp01-06-16d1t06.shn
     5:19.06       56285756 B   ---   --   ---xx    shn  0.6314  wsp01-06-16d1t07.shn
     9:09.52       96965948 B   ---   --   ---xx    shn  0.6745  wsp01-06-16d1t08.shn
     4:45.14       50306972 B   ---   --   ---xx    shn  0.6393  wsp01-06-16d1t09.shn
     7:31.28       79622300 B   ---   --   ---xx    shn  0.6955  wsp01-06-16d2t01.shn
     7:00.39       74179772 B   ---   --   ---xx    shn  0.6571  wsp01-06-16d2t02.shn
     4:59.58       52880060 B   ---   --   ---xx    shn  0.7125  wsp01-06-16d2t03.shn
    12:31.48      132589340 B   ---   --   ---xx    shn  0.6446  wsp01-06-16d2t04.shn
    16:04.33      170127260 B   ---   --   ---xx    shn  0.5877  wsp01-06-16d2t05.shn
     6:04.49       64324892 B   ---   --   ---xx    shn  0.6562  wsp01-06-16d3t01.shn
     5:40.25       60034844 B   ---   --   ---xx    shn  0.6670  wsp01-06-16d3t02.shn
     5:30.56       58343756 B   ---   --   ---xx    shn  0.7303  wsp01-06-16d3t03.shn
     7:32.52       79855148 B   ---   --   ---xx    shn  0.6371  wsp01-06-16d3t04.shn
     6:44.44       71369132 B   ---   --   ---xx    shn  0.6442  wsp01-06-16d3t05.shn
     5:13.32       55288508 B   ---   --   ---xx    shn  0.6403  wsp01-06-16d3t06.shn
   159:27.18     1687662016 B                            0.6657  (20 files)



More information about the bittorrent mailing list