[bittorrent] jg1975-04-05.lom.early.aud.138217.flac1644

Automated Mailer noreply-bt.e at etree.org
Sun Apr 30 20:55:13 UTC 2017


Band:           Garcia
Torrent Name:   jg1975-04-05.lom.early.aud.138217.flac1644
Uploaded by:    nfagdtrfb
DB Link:        
Details:        http://bt.etree.org/details.php?id=592687

Contact the seeder at http://db.etree.org/nfagdtrfb

If the link to this show does not work, it was probably removed for
being non-trade-friendly.

Description / text file:
-------------------------
LEGION OF MARY
Capitol Theatre
Passaic NJ
04-05-1975
Early Show

01 Jon Scher intro
02 Tore Up Over You
03 Creepin' (instrumental)
04 I Feel Like Dynamite
05 Mystery Train
06 Every Word You Say
07 Mississippi Moon
08 I Second That Emotion
09 The Night They Drove Old Dixie Down

Unknown AUD kindly provided by wk & http://jgmf.blogspot.com/ 

Transfer: Maxell XLII > Nakamichi CR-5A > Edirol FA-66 > Wavelab 2448 > 
R8Brain > CD-Wave > TLH > FLAC 1644 tagged. Transfer by Andrew F. 04/2017

Note: Lo-fi mono recording, with age-related issues; drop-outs, warble, 
crinkle damage, etc. Tight edits between songs. Cross-faded cuts; Mystery 
Train at 12:17, and Second That Emotion at 12:58. JGMF's listening notes: 
http://jgmf.blogspot.com/2012/11/ln-jg1975-04-05lomearlyaud.html 

    length     expanded size    cdr  WAVE problems  fmt   ratio  filename
     0:28.16        4976876 B   ---   --   ---xx   flac  0.3412  lom1975-04-05t01.flac
     8:27.71       89601836 B   ---   --   ---xx   flac  0.3556  lom1975-04-05t02.flac
    13:56.44      147573932 B   ---   --   ---xx   flac  0.3465  lom1975-04-05t03.flac
    11:24.59      120796412 B   ---   --   ---xx   flac  0.3584  lom1975-04-05t04.flac
    13:20.29      141188252 B   ---   --   ---xx   flac  0.3538  lom1975-04-05t05.flac
     6:53.40       72947324 B   ---   --   ---xx   flac  0.3458  lom1975-04-05t06.flac
     8:15.14       87350972 B   ---   --   ---xx   flac  0.3442  lom1975-04-05t07.flac
    18:26.47      195208988 B   ---   --   ---xx   flac  0.3602  lom1975-04-05t08.flac
     8:49.40       93409724 B   ---   --   ---xx   flac  0.3549  lom1975-04-05t09.flac
    90:02.60      953054316 B                            0.3533  (9 files)

No errors occured.




More information about the bittorrent mailing list