[bittorrent] Electric Codpiece Vista Room At Napoleon's Decatur, Georgia 4/28/2017 (Schoeps CCM4V'S FOB)

Automated Mailer noreply-bt.e at etree.org
Sun Apr 30 07:23:28 UTC 2017


Band:           Other
Torrent Name:   Electric Codpiece Vista Room At Napoleon's Decatur, Georgia 4/28/2017 (Schoeps CCM4V'S FOB)
Uploaded by:    zmanatl
DB Link:        
Details:        http://bt.etree.org/details.php?id=592668

Contact the seeder at http://db.etree.org/zmanatl

If the link to this show does not work, it was probably removed for
being non-trade-friendly.

Description / text file:
-------------------------
Electric Codpiece
Vista Room At Napoleon's
Decatur, Georgia
4/28/2017

Source: Schoeps CCM4V's>Lunatec V2>Benchmark AD2K>
Sound Devices 722 (24/44)
FOB/DFC/KFC/ZFC/AARP 15' From Stage, 7 1/2' High
DSP: Sound Devices 722>Sound Forge 10.0>CD Wave>flac(16)
ID3 Tagged In Foobar 2000
Recorded By: Z-Man
Seeded By: Z-Man 

Disc I 1st Set

01 Greeting/Introduction By Richie Jones
02 High
03 Short Term
04 Come Back Baby, I Wish You Would
05 * Low Spark Of High-Heeled Boys
06 Livin' The Dream
07 Little People 
08 19 And 41
09 Breathe >
10 Spatial >
11 Breathe 
12 Give It To Me >
13 #Keep On Smilin'

* With Richie Jones On Percussion
# With ? On Mini Washboard

electric2017-04-28d01t01.flac:63c6e6b3e319258b5cb39483690d2c3c
electric2017-04-28d01t02.flac:5dc4bf4efd10cc9159a689ec54a7f62b
electric2017-04-28d01t03.flac:c5d506e0c24306a0b97fef5993086e75
electric2017-04-28d01t04.flac:f86493b1f6e2ec82ac3749fe8bfc3bf1
electric2017-04-28d01t05.flac:51621840ab8362a641c99025029591b7
electric2017-04-28d01t06.flac:bfdd0c22743b7cfb43dc787ff8a9c3c5
electric2017-04-28d01t07.flac:776c2248bf7831c668e6fba87339bd56
electric2017-04-28d01t08.flac:24c1d83e837acb769793ba776157061b
electric2017-04-28d01t09.flac:4d469047cdcd36951fbfea42f2fff872
electric2017-04-28d01t10.flac:8e8fa7ec4045cde4a6b5ef84bf1e2162
electric2017-04-28d01t11.flac:b86bb55f24596b1be34f22092ba89cb8
electric2017-04-28d01t12.flac:93ca3a7d303c3c1cda318b608540ab80
electric2017-04-28d01t13.flac:c9e76f12f8a7d6016886d96a88663ec5

 length     expanded size    cdr  WAVE problems  fmt   ratio  filename
     0:39.55        7009004 B   ---   --   ---xx   flac  0.3843  electric2017-04-28d01t01.flac
     8:55.57       94508108 B   ---   --   ---xx   flac  0.5865  electric2017-04-28d01t02.flac
     5:49.50       61681244 B   ---   --   ---xx   flac  0.5820  electric2017-04-28d01t03.flac
     7:50.03       82915100 B   ---   --   ---xx   flac  0.6406  electric2017-04-28d01t04.flac
    11:32.10      122092364 B   ---   --   ---xx   flac  0.5149  electric2017-04-28d01t05.flac
     5:13.45       55319084 B   ---   --   ---xx   flac  0.5409  electric2017-04-28d01t06.flac
     6:05.59       64524812 B   ---   --   ---xx   flac  0.5270  electric2017-04-28d01t07.flac
     5:02.09       53294012 B   ---   --   ---xx   flac  0.5593  electric2017-04-28d01t08.flac
     3:13.00       34045244 B   ---   --   ---xx   flac  0.5153  electric2017-04-28d01t09.flac
     5:37.29       59515052 B   ---   --   ---xx   flac  0.6419  electric2017-04-28d01t10.flac
     2:03.45       21803084 B   ---   --   ---xx   flac  0.4785  electric2017-04-28d01t11.flac
     5:40.53       60100700 B   ---   --   ---xx   flac  0.6012  electric2017-04-28d01t12.flac
     5:22.44       56904332 B   ---   --   ---xx   flac  0.5569  electric2017-04-28d01t13.flac
    73:06.09      773712140 B                            0.5658  (13 files)







More information about the bittorrent mailing list