[bittorrent] The Bitteroots Inman Park Festival Inman Park Atlanta, Georgia 4/29/2017 (Schoeps CCM4V'S FOB)

Automated Mailer noreply-bt.e at etree.org
Sat Apr 29 22:48:31 UTC 2017


Band:           Other
Torrent Name:   The Bitteroots Inman Park Festival Inman Park Atlanta, Georgia 4/29/2017 (Schoeps CCM4V'S FOB)
Uploaded by:    zmanatl
DB Link:        
Details:        http://bt.etree.org/details.php?id=592651

Contact the seeder at http://db.etree.org/zmanatl

If the link to this show does not work, it was probably removed for
being non-trade-friendly.

Description / text file:
-------------------------
The Bitteroots
Inman Park Festival
Atlanta, Georgia
4/29/2017

Source: Schoeps CCM4V's>Lunatec V2>Benchmark AD2K>
Sound Devices 722 (24/44)
FOB/DFC/KFC/ZFC/AARP 18' From Stage, 6 1/2' High
DSP: Sound Devices 722>Sound Forge 10.0>CD Wave>flac(16)
ID3 Tagged In Foobar 2000
Recorded By: Z-Man
Seeded By: Z-Man 

Disc I 

01 French Fries 
02 Desperate >
03 Try Me Again 
04 Rush Me 
05 Merch Push/Banter
06 Clearly >
07 Other Door >
08 This Town >
09 Let's Go  
10 Band Introductions 
11 Defenseless 
12 Sinnin'

Bill Taylor - Bass And Vocals
Laura Dees - Vocals
Kyle Bryant - Guitar And Vocals
Mark Evers - Guitar And Vocals 
Darrin Newfa - Saxophone
Mike Davis - Drums

thebitteroots2017-04-29d01t01.flac:e1827b33512d33f3c682e837f3045831
thebitteroots2017-04-29d01t02.flac:f057c3816affc21c73f20a6f5422470b
thebitteroots2017-04-29d01t03.flac:16d92d60f2889f54c0391893b31542f5
thebitteroots2017-04-29d01t04.flac:dd1c8ec11436dc38c47f62c94fad5c64
thebitteroots2017-04-29d01t05.flac:3e471f867133fa7c09b51342bd9a9d04
thebitteroots2017-04-29d01t06.flac:e8deb544cd939f12478c4dcfaea63a98
thebitteroots2017-04-29d01t07.flac:575a9f24c909e03cc1aefebdcb5f266f
thebitteroots2017-04-29d01t08.flac:44eb620b098c9d8c7162404d1191792b
thebitteroots2017-04-29d01t09.flac:9f23ccdd86839c881111ba4c5becd6c2
thebitteroots2017-04-29d01t10.flac:c4ea0c62077910fc6593676303e8fec4
thebitteroots2017-04-29d01t11.flac:72f3cf338e646736d216f9e35fe72196
thebitteroots2017-04-29d01t12.flac:8edf2341d667883aa848206cda303517

 length     expanded size    cdr  WAVE problems  fmt   ratio  filename
     3:43.18       39379580 B   ---   --   ---xx   flac  0.5320  thebitteroots2017-04-29d01t01.flac
     3:52.00       40924844 B   ---   --   ---xx   flac  0.5880  thebitteroots2017-04-29d01t02.flac
     6:24.63       67885820 B   ---   --   ---xx   flac  0.5749  thebitteroots2017-04-29d01t03.flac
     5:29.45       58141484 B   ---   --   ---xx   flac  0.5965  thebitteroots2017-04-29d01t04.flac
     1:46.60       18839564 B   ---   --   ---xx   flac  0.3344  thebitteroots2017-04-29d01t05.flac
     2:47.48       29571740 B   ---   --   ---xx   flac  0.5384  thebitteroots2017-04-29d01t06.flac
     2:49.15       29846924 B   ---   --   ---xx   flac  0.6086  thebitteroots2017-04-29d01t07.flac
     8:14.16       87179276 B   ---   --   ---xx   flac  0.6129  thebitteroots2017-04-29d01t08.flac
     3:26.42       36437228 B   ---   --   ---xx   flac  0.6092  thebitteroots2017-04-29d01t09.flac
     1:23.08       14660060 B   ---   --   ---xx   flac  0.3601  thebitteroots2017-04-29d01t10.flac
     4:21.07       46056908 B   ---   --   ---xx   flac  0.5704  thebitteroots2017-04-29d01t11.flac
     8:45.08       92628860 B   ---   --   ---xx   flac  0.5681  thebitteroots2017-04-29d01t12.flac
    53:03.30      561552288 B                            0.5679  (12 files)














More information about the bittorrent mailing list