[bittorrent] Donna Hopkins Band Vista Room At Napoleon's Decatur, Georgia 4/28/2017 (Schoeps CCM4V'S FOB)

Automated Mailer noreply-bt.e at etree.org
Sat Apr 29 13:13:30 UTC 2017


Band:           Other
Torrent Name:   Donna Hopkins Band Vista Room At Napoleon's Decatur, Georgia 4/28/2017 (Schoeps CCM4V'S FOB)
Uploaded by:    zmanatl
DB Link:        
Details:        http://bt.etree.org/details.php?id=592647

Contact the seeder at http://db.etree.org/zmanatl

If the link to this show does not work, it was probably removed for
being non-trade-friendly.

Description / text file:
-------------------------
Donna Hopkins Band
Vista Room At Napoleon's
Decatur, Georgia
4/28/2017

Source: Schoeps CCM4V's>Lunatec V2>Benchmark AD2K>
Sound Devices 722 (24/44)
FOB/DFC/KFC/ZFC/AARP 15' From Stage, 7 1/2' High
DSP: Sound Devices 722>Sound Forge 10.0>CD Wave>flac(16)
ID3 Tagged In Foobar 2000
Recorded By: Z-Man
Seeded By: Z-Man 

Disc I 1st Set

01 Introduction
02 Hound Dog >
03 Don't Ask Why >
04 Wheels
05 Dirty Alabama Road 
06 Banter/Call Outs
07 A Day For Love 
08 Little By Little
09 Born With It
10 Keep Talkin' Love 
11 You're The One 
12 *I've Got A Mind To Ramble
13 My Heart Is Full Of Love
14 Time To Travel

* With Bryan Morris Of Electric Codpiece On Guitar

Donna Hopkins - Guitar And Vocals
Richie Jones - Drums And Vocals
Brad Bauman - Harmonica And Vocals 
Russ Still - Keyboards And Vocals
Jacob Holliday - Bass And Vocals

donna2017-04-28d01t01.flac:f8d963b21e1e6d072012420eac085cf4
donna2017-04-28d01t02.flac:0079cd632fd0fadd662fd0027b7e6c6d
donna2017-04-28d01t03.flac:043d0a36e8a5369409bf120873357728
donna2017-04-28d01t04.flac:a8e0307715592fe69e94d5e59b09dfda
donna2017-04-28d01t05.flac:52d598ec947c68238c79c579df34f7d4
donna2017-04-28d01t06.flac:a67f9cb579998af822c693559f22756b
donna2017-04-28d01t07.flac:e0d970893f933da8cffa3a0ae159cfce
donna2017-04-28d01t08.flac:c52ea25fd42d2d706605a299dcd73ec3
donna2017-04-28d01t09.flac:04afed749ec4874543f76ede9f0b1335
donna2017-04-28d01t10.flac:ffe910c85f378c91f05a2f80b87250dc
donna2017-04-28d01t11.flac:82a52e4d4d3648c9e7e11ab2eabe0bfc
donna2017-04-28d01t12.flac:e187983c160f073efe230ef61bee56ae
donna2017-04-28d01t13.flac:4774d908ed32fbe64162e132a53f0771
donna2017-04-28d01t14.flac:79644fea614334fcd04f6085b7d49e6d

length     expanded size    cdr  WAVE problems  fmt   ratio  filename
     0:53.01        9351596 B   ---   --   ---xx   flac  0.3870  donna2017-04-28d01t01.flac
     4:32.17       48020828 B   ---   --   ---xx   flac  0.5975  donna2017-04-28d01t02.flac
     7:03.46       74725436 B   ---   --   ---xx   flac  0.5652  donna2017-04-28d01t03.flac
     5:27.29       57751052 B   ---   --   ---xx   flac  0.5103  donna2017-04-28d01t04.flac
     7:18.05       77275004 B   ---   --   ---xx   flac  0.5732  donna2017-04-28d01t05.flac
     1:11.08       12543260 B   ---   --   ---xx   flac  0.3695  donna2017-04-28d01t06.flac
     3:48.58       40355660 B   ---   --   ---xx   flac  0.5245  donna2017-04-28d01t07.flac
     5:45.09       60879212 B   ---   --   ---xx   flac  0.4975  donna2017-04-28d01t08.flac
     7:27.34       78930812 B   ---   --   ---xx   flac  0.5349  donna2017-04-28d01t09.flac
     8:13.42       87064028 B   ---   --   ---xx   flac  0.5244  donna2017-04-28d01t10.flac
     6:01.46       63788636 B   ---   --   ---xx   flac  0.5923  donna2017-04-28d01t11.flac
     6:32.62       69294668 B   ---   --   ---xx   flac  0.5513  donna2017-04-28d01t12.flac
     5:27.08       57701660 B   ---   --   ---xx   flac  0.4248  donna2017-04-28d01t13.flac
    10:00.13      105870620 B   ---   --   ---xx   flac  0.5112  donna2017-04-28d01t14.flac
    79:42.03      843552472 B                            0.5298  (14 files)


















More information about the bittorrent mailing list