[bittorrent] gd1981-08-12.Partial Show.Salt Palace.UT.sbd.msc.happyjack.Flac16 [New Source]

Automated Mailer noreply-bt.e at etree.org
Fri Apr 28 21:07:54 UTC 2017


Band:           Grateful Dead
Torrent Name:   gd1981-08-12.Partial Show.Salt Palace.UT.sbd.msc.happyjack.Flac16  [New Source]
Uploaded by:    dedhed69
DB Link:        
Details:        http://bt.etree.org/details.php?id=592640

Contact the seeder at http://db.etree.org/dedhed69

If the link to this show does not work, it was probably removed for
being non-trade-friendly.

Description / text file:
-------------------------

GRATEFUL DEAD
The Salt Palace
Salt Lake City, UT
August 12, 1981

 A Gratefully Little Deadicated Feat Recording 
[Happy Jack's Masters Cassette Analog Collection #6]
 *** 16 Bit Version *** 1st TIME IN CIRCULATION 

Taper: Friend & Happy Jack

Monitor Mix sbd [Jerry's side]
Source: sbd > > Sony TC-D5 > Master Cassettes

Transfer: Clone [Maxell MX90 Cassette] > Nakamichi CR-3A > Sony PCM-M10 > Scandisc Ultra MicroSD 8gb [class 10] on 4/24/2017
Recording Mode: LPCM [wav] 96.00kHz/24bit

Lineage: 96.00kHz/24bit wav > Adobe Audition 3.0. > WaveLab6 > iZotope Ozone 3 > CD Wave > TLH > Flac 16

Converting Sample Rate: Adobe Audition 3.0 was also used to to convert 96.00kHz/24bit.WAV to sample rate to 44.10kHz/16bit with High Qulaity at 100%, Pre Post Filter checked, Dither enabled, Dither Depth at 1, P.D.F set to Triangular and No Noise Shaping. 

Set 1  [Partial]
01. Friend Of The Devil
02. Mama Tried > 
03. Mexacali Blues
04. Jack-A-Roe
05. C. C. Rider
06. Althea
07. Lost Sailor * >
08. Saint Of Circumstance

SET BREAK

Set 2,  [Partial]
01. Tuning
02. Might As Well ^
03. Women Are Smarter
04. Scarlet Begonias >
05. Fire On The Mountain

Show Notes
^ - 1st for Brent
AWESOME slow version of Althea
One of the BEST Scarlet > Fire
Great early version of Women r Smarter & CC Rider
I wish this entire show was not stolen a GREAT Morning Dew in the 2nd set

Source Notes
Missing first 2 songs getting there late & setting up as usual trying to find the patch cord they left us. LOLS
* - Tape Flip - Very little music lost end of song. Missing 1 verse. Now a days with digital less tape flipping. LOLS

Mastering Notes
added +2db gain
Fixed tape flip transision
Removal of DC offset.
Removal of White noise
Pitch Corrected

Band Members
Jerry Garcia - guitar & vocals
Bob Weir - guitar & vocals
Bill Kreutzmann - drums
Phil Lesh - bass & vocals
Mickey Hart - percussion 
Brent Mydland - keyboards & vocals

SUPPORT THE ARTIST
http://www.dead.net/
Buy there Music. Go See Them LIVE !!

I THINK THIS SHOW GOES UNDER THE RADAR. A GREAT EARLY SHOW OF THE BRENT ERA WHERE THEY ALL ARE STARTING TO SETTLE IN WITH EACH OTHER. 


Happy Jack Final Notes
West Coast trip
*** Thanks to my friend for teaching me & the great times taping from 77-90
  The rest has been stolen along with many others while I was in the Hospital for Spinal Bacteria Meningitas. The  good news there are tapes still here I would & Like them see the light & ears of others as my health is declinig. Plus it is good therapy for me to do this once again. I have not touched most of these tapes in 25 - 30 years. God Bless & Enjoy Jack

added md5
added ffp
added shn tool.len text
SBES Fixed
DO NOT SELL !!!!

ENJOY/SHARE WITH FAMILY & FRIENDS [That you trust & just loves the music]

Happy Jack
Please beware of us old school tapers who may have lost the tolerance for being disrespected! After so many years how many end up asking for a show!!!
Please Be Kind

MD5
55f679ccee1f77c4aad72b2c3a935e4f *gd1981-08-12 Set 1. Track01. Friend Of The Devil-fixed.flac
c6c584d1ae301ef3e4726f61695bb556 *gd1981-08-12 Set 1. Track02. Mama Tried-fixed.flac
e07356133f9fbfa8c5c096f106bca92b *gd1981-08-12 Set 1. Track03. Mexacali Blues-fixed.flac
007f6e99363c4aa0d6eca484d4173872 *gd1981-08-12 Set 1. Track04. Jack-A-Roe-fixed.flac
9086aa35bf7a248e949b25e1e5965dfd *gd1981-08-12 Set 1. Track05. C. C. Rider-fixed.flac
7d5d3033c27d0ecaff942ae64c3aa33f *gd1981-08-12 Set 1. Track06. Althea-fixed.flac
95a8a49897b4f71920bf324dfad81591 *gd1981-08-12 Set 1. Track07. Lost Sailor-fixed.flac
5bbdf3de1ef9e3e1dff4af0e2089c398 *gd1981-08-12 Set 1. Track08. Saint of Circumstance-fixed.flac
9d49091a50f8776cf126a1482ad3c63f *gd1981-08-12 Set 2. Track01. Tuning-fixed.flac
56dd231e1cd08bc8cb57575f3bdcb7b7 *gd1981-08-12 Set 2. Track02. Might As Well-fixed.flac
b13643d7992a3455e951691cb293252e *gd1981-08-12 Set 2. Track03. Women Are Smarter-fixed.flac
f5a29f433d9af52b85df74b8986e6212 *gd1981-08-12 Set 2. Track04. Scarlet Begonias-fixed.flac
f6e132a129fb52e774559e731c96be1e *gd1981-08-12 Set 2. Track05. Fire On The Mountain-fixed.flac

    length     expanded size    cdr  WAVE problems  fmt   ratio  filename
     9:54.48      104894540 B   ---   --   ---xx   flac  0.6369  gd1981-08-12 Set 1. Track01. Friend Of The Devil-fixed.flac
     2:34.27       27229148 B   ---   --   ---xx   flac  0.7022  gd1981-08-12 Set 1. Track02. Mama Tried-fixed.flac
     6:21.34       67288412 B   ---   --   ---xx   flac  0.6920  gd1981-08-12 Set 1. Track03. Mexacali Blues-fixed.flac
     4:38.54       49166252 B   ---   --   ---xx   flac  0.7222  gd1981-08-12 Set 1. Track04. Jack-A-Roe-fixed.flac
     8:54.02       94202348 B   ---   --   ---xx   flac  0.7054  gd1981-08-12 Set 1. Track05. C. C. Rider-fixed.flac
     9:22.51       99256796 B   ---   --   ---xx   flac  0.7234  gd1981-08-12 Set 1. Track06. Althea-fixed.flac
     5:02.45       53378684 B   ---   --   ---xx   flac  0.6951  gd1981-08-12 Set 1. Track07. Lost Sailor-fixed.flac
     6:38.56       70338956 B   ---   --   ---xx   flac  0.6392  gd1981-08-12 Set 1. Track08. Saint of Circumstance-fixed.flac
     1:11.63       12672620 B   ---   --   ---xx   flac  0.4882  gd1981-08-12 Set 2. Track01. Tuning-fixed.flac
     4:10.29       44168252 B   ---   --   ---xx   flac  0.6757  gd1981-08-12 Set 2. Track02. Might As Well-fixed.flac
     6:51.44       72603932 B   ---   --   ---xx   flac  0.6026  gd1981-08-12 Set 2. Track03. Women Are Smarter-fixed.flac
    11:24.49      120772892 B   ---   --   ---xx   flac  0.6537  gd1981-08-12 Set 2. Track04. Scarlet Begonias-fixed.flac
    10:51.33      114914060 B   ---   --   ---xx   flac  0.6474  gd1981-08-12 Set 2. Track05. Fire On The Mountain-fixed.flac
    87:57.10      930886892 B                            0.6676  (13 files)





More information about the bittorrent mailing list