[bittorrent] gd1981-08-12.Partial Show.Salt Palace.UT.sbd.msc.happyjack.Flac24 [New Source]

Automated Mailer noreply-bt.e at etree.org
Fri Apr 28 20:54:40 UTC 2017


Band:           Grateful Dead
Torrent Name:   gd1981-08-12.Partial Show.Salt Palace.UT.sbd.msc.happyjack.Flac24  [New Source]
Uploaded by:    dedhed69
DB Link:        
Details:        http://bt.etree.org/details.php?id=592639

Contact the seeder at http://db.etree.org/dedhed69

If the link to this show does not work, it was probably removed for
being non-trade-friendly.

Description / text file:
-------------------------

GRATEFUL DEAD
The Salt Palace
Salt Lake City, UT
August 12, 1981

 A Gratefully Little Deadicated Feat Recording 
[Happy Jack's Masters Cassette Analog Collection #6]
 *** 24 Bit Version *** 1st TIME IN CIRCULATION 

Taper: Friend & Happy Jack

Monitor Mix sbd [Jerry's side]
Source: sbd > > Sony TC-D5 > Master Cassettes

Transfer: Clone [Maxell MX90 Cassette] > Nakamichi CR-3A > Sony PCM-M10 > Scandisc Ultra MicroSD 8gb [class 10] on 4/24/2017
Recording Mode: LPCM [wav] 96.00kHz/24bit

Lineage: 96.00kHz/24bit wav > Adobe Audition 3.0. > WaveLab6 > iZotope Ozone 3 > CD Wave > TLH > Flac 24

Set 1  [Partial]
01. Friend Of The Devil
02. Mama Tried > Mexacali Blues
03. Jack-A-Roe
04. C C Rider
05. Althea
06. Lost Sailor * >
07. Saint Of Circumstance

SET BREAK

Set 2,  [Partial]
01. Might As Well ^
02. Women Are Smarter
03. Scarlet Begonias >
04. Fire On The Mountai

Show Notes
^ - 1st for Brent
AWESOME slow version of Althea
One of the BEST Scarlet > Fire
Great early version of Women r Smarter & CC Rider
I wish this entire show was not stolen a GREAT Morning Dew in the 2nd set

Source Notes
Missing first 2 songs getting there late & setting up as usual trying to find the patch cord they left us. LOLS
* - Tape Flip - Very little music lost end of song. Missing 1 verse. Now a days with digital less tape flipping. LOLS

Mastering Notes
added +2db gain
Fixed tape flip transision
Removal of DC offset.
Removal of White noise
Pitch Corrected

Band Members
Jerry Garcia - guitar & vocals
Bob Weir - guitar & vocals
Bill Kreutzmann - drums
Phil Lesh - bass & vocals
Mickey Hart - percussion 
Brent Mydland - keyboards & vocals

SUPPORT THE ARTIST
http://www.dead.net/
Buy there Music. Go See Them LIVE !!

I THINK THIS SHOW GOES UNDER THE RADAR. A GREAT EARLY SHOW OF THE BRENT ERA WHERE THEY ALL ARE STARTING TO SETTLE IN WITH EACH OTHER. 


Happy Jack Final Notes
West Coast trip
*** Thanks to my friend for teaching me & the great times taping from 77-90
  The rest has been stolen along with many others while I was in the Hospital for Spinal Bacteria Meningitas. The  good news there are tapes still here I would & Like them see the light & ears of others as my health is declinig. Plus it is good therapy for me to do this once again. I have not touched most of these tapes in 25 - 30 years. God Bless & Enjoy Jack

added md5
added ffp
added shn tool.len text

DO NOT SELL !!!!

ENJOY/SHARE WITH FAMILY & FRIENDS [That you trust & just loves the music]

Happy Jack
Please beware of us old school tapers who may have lost the tolerance for being disrespected! After so many years how many end up asking for a show!!!
Please Be Kind

MD5
f15abbb41404828e618d519df0e30ddc *gd1981-08-12 Set 1. Track01. Friend Of The Devil.flac
c4bb0ffe3862ca1a1ccb2f96028c2a16 *gd1981-08-12 Set 1. Track02. Mama Tried  .flac
92bf851ad4be059aede1c4414f3497c3 *gd1981-08-12 Set 1. Track03. Mexacali Blues.flac
c30637932fdb0a3508d19ab21b08a859 *gd1981-08-12 Set 1. Track04. Jack-A-Roe.flac
477ba2f7c7ec1a925e8943231ab6a5c9 *gd1981-08-12 Set 1. Track05. C. C. Rider.flac
0b211b1f4e4d149f8e4f842880cfb765 *gd1981-08-12 Set 1. Track06. Althea.flac
9cd301f0089dd8e967a858e0309d5f03 *gd1981-08-12 Set 1. Track07. Lost Sailor .flac
de054308c79d55bfaf42f2948c8a50df *gd1981-08-12 Set 1. Track08. Saint of Circumstance.flac
14c4dc6ffb014f047a53a0dd283ec806 *gd1981-08-12 Set 2. Track01. Tuning.flac
02a87c489f349ae625df2ea45a88d9ad *gd1981-08-12 Set 2. Track02. Might As Well .flac
ab23fa8a7ec5179a37afceb125deda05 *gd1981-08-12 Set 2. Track03. Women Are Smarter.flac
f9cee71cad744965a053fd6e1a596fc0 *gd1981-08-12 Set 2. Track04. Scarlet Begonias .flac
75548ea19c47281704be9a09d7b867de *gd1981-08-12 Set 2. Track05. Fire On The Mountain.flac

    length     expanded size    cdr  WAVE problems  fmt   ratio  filename
     9:54.640     342512684 B   cxx   --   ---xx   flac  0.6705  gd1981-08-12 Set 1. Track01. Friend Of The Devil.flac
     2:34.360      88911404 B   cxx   --   ---xx   flac  0.6966  gd1981-08-12 Set 1. Track02. Mama Tried  .flac
     6:21.453     219717164 B   cxx   --   ---xx   flac  0.6929  gd1981-08-12 Set 1. Track03. Mexacali Blues.flac
     4:38.720     160542764 B   cxx   --   ---xx   flac  0.7069  gd1981-08-12 Set 1. Track04. Jack-A-Roe.flac
     8:54.027     307599404 B   cxx   --   ---xx   flac  0.6982  gd1981-08-12 Set 1. Track05. C. C. Rider.flac
     9:22.680     324103724 B   cxx   --   ---xx   flac  0.7057  gd1981-08-12 Set 1. Track06. Althea.flac
     5:02.600     174297644 B   cxx   --   ---xx   flac  0.6994  gd1981-08-12 Set 1. Track07. Lost Sailor .flac
     6:38.747     229678124 B   cxx   --   ---xx   flac  0.6718  gd1981-08-12 Set 1. Track08. Saint of Circumstance.flac
     1:11.840      41379884 B   cxx   --   ---xx   flac  0.6106  gd1981-08-12 Set 2. Track01. Tuning.flac
     4:10.387     144222764 B   cxx   --   ---xx   flac  0.6861  gd1981-08-12 Set 2. Track02. Might As Well .flac
     6:51.587     237073964 B   cxx   --   ---xx   flac  0.6584  gd1981-08-12 Set 2. Track03. Women Are Smarter.flac
    11:24.653     394360364 B   cxx   --   ---xx   flac  0.6796  gd1981-08-12 Set 2. Track04. Scarlet Begonias .flac
    10:51.437     375227534 B   cxx   --   ---xx   flac  0.6786  gd1981-08-12 Set 2. Track05. Fire On The Mountain.flac
    87:57.130    3039627422 B                            0.6843  (13 files)





More information about the bittorrent mailing list